<?xml version="1.0" standalone="no"?>
<!DOCTYPE svg PUBLIC "-//W3C//DTD SVG 1.1//EN" "http://www.w3.org/Graphics/SVG/1.1/DTD/svg11.dtd">
<svg xmlns="http://www.w3.org/2000/svg"><metadata>This SVG WebFont was generated by YouWorkForThem.
Copyright (c) 2015 by thmbnl. graphic design. All rights reserved</metadata><defs><font horiz-adv-x="0" id="ywftsvg"><font-face ascent="1638" bbox="-1014 -500 2279 2046" cap-height="1516" descent="-410" font-family="" font-stretch="normal" font-weight="400" panose-1="0 0 5 0 0 0 0 0 0 0" underline-position="0" underline-thickness="0" unicode-range="U+0020-25CA" units-per-em="2048" x-height="1024"/><missing-glyph d="M788 1516v-1926h-610v1926h610zM641 1386h-317v-63h125v-72h-127v-63h319v63h-127v72h127v63zM514 1139h-192v-201h319v66h-127v135zM449 1073v-69h-64v69h64zM641 887h-319v-64h127v-71h-127v-64h192v135h127v64zM641 770h-63v-127h-256v-65h319v192zM641 537h-192v-109 h65v45h64v-92h-193v156h-63v-220h319v220zM641 203h-319v-217h319v217zM578 139v-90h-193v90h193zM641 -59h-319v-64h135l-135 -90v-63h319v63h-197l136 90h61v64z" horiz-adv-x="962"/><glyph d="M788 1516v-1926h-610v1926h610zM641 1386h-317v-63h125v-72h-127v-63h319v63h-127v72h127v63zM514 1139h-192v-201h319v66h-127v135zM449 1073v-69h-64v69h64zM641 887h-319v-64h127v-71h-127v-64h192v135h127v64zM641 770h-63v-127h-256v-65h319v192zM641 537h-192v-109 h65v45h64v-92h-193v156h-63v-220h319v220zM641 203h-319v-217h319v217zM578 139v-90h-193v90h193zM641 -59h-319v-64h135l-135 -90v-63h319v63h-197l136 90h61v64z" glyph-name=".notdef" horiz-adv-x="962"/><glyph glyph-name="glyph1"/><glyph glyph-name="glyph2" horiz-adv-x="681"/><glyph glyph-name="space" horiz-adv-x="610" unicode=" "/><glyph d="M-10 324l209 1192h202l-208 -1192h-203zM35 0q-49 0 -78 35t-20.5 86t49.5 84t90 33t77.5 -34t20.5 -83q-8 -51 -50 -86t-89 -35z" glyph-name="exclam" horiz-adv-x="428" unicode="!"/><glyph d="M199 1133l-27 383h174l31 -383h-178zM469 1133l-27 383h176l29 -383h-178z" glyph-name="quotedbl" horiz-adv-x="704" unicode="&quot;"/><glyph d="M1473 1104l-68 -178h-285l-116 -320h276l-66 -178h-276l-158 -428h-182l158 428h-338l-158 -428h-180l160 428h-269l66 178h266l117 320h-258l65 178h258l152 412h184l-155 -412h340l153 412h176l-151 -412h289zM821 606l121 320h-340l-119 -320h338z" glyph-name="numbersign" horiz-adv-x="1523" unicode="#"/><glyph d="M524 879q72 -35 119 -65t111.5 -87t90 -139t9.5 -182q-29 -160 -152.5 -278t-289.5 -140l-35 -211h-187l37 219q-156 35 -293 172l144 184q152 -145 295 -145q94 0 168.5 59.5t91.5 145.5q16 98 -53.5 165.5t-219.5 145.5q-41 20 -72.5 40.5t-67.5 49.5t-57.5 58.5 t-41 70.5t-18.5 86t10 102q31 141 136 244t247 139l36 205h187l-35 -194q139 -16 240 -103l-136 -159q-96 74 -200 73q-94 0 -172 -60.5t-92 -150.5q-8 -45 3 -81.5t47 -67.5t65.5 -49t84.5 -47z" glyph-name="dollar" horiz-adv-x="1046" unicode="$"/><glyph d="M391 844q-139 0 -221 98t-57.5 237.5t141.5 239t256 99.5t222 -99.5t56 -238.5q-23 -139 -140.5 -237.5t-256.5 -98.5zM334 0h-203l1063 1516h201zM479.5 1337q-65.5 0 -121 -46t-67.5 -111q-10 -63 28.5 -110.5t102.5 -47.5q68 0 123 47t65 111q12 66 -26.5 111.5 t-104 45.5zM1016 -2q-139 0 -220 98.5t-56.5 237.5t140 237.5t255 98.5t222.5 -98.5t60 -237.5q-27 -139 -144.5 -237.5t-256.5 -98.5zM1102 492q-66 0 -120 -45.5t-64 -112.5q-12 -66 26.5 -112t104 -46t121 46t67.5 112q10 68 -28.5 113t-106.5 45z" glyph-name="percent" horiz-adv-x="1611" unicode="%"/><glyph d="M1120 659l-241 -366l112 -164l-176 -129l-80 121q-162 -139 -360 -139q-197 0 -310.5 139t-78.5 338q20 117 89.5 218t176.5 167q-98 121 -70 286q29 164 165 281t300 117t260.5 -116t67.5 -279q-27 -145 -140.5 -255t-256.5 -133l192 -284l186 284zM612 1329 q-82 0 -149.5 -59.5t-81.5 -139.5q-14 -84 33 -141t129 -57t148.5 57.5t82.5 140.5q14 80 -34 139.5t-128 59.5zM412 180q121 0 219 92l-277 420q-141 -78 -172 -237q-20 -117 48.5 -196t181.5 -79z" glyph-name="ampersand" horiz-adv-x="1259" unicode="&amp;"/><glyph d="M199 1133l-27 383h174l31 -383h-178z" glyph-name="quotesingle" horiz-adv-x="432" unicode="'"/><glyph d="M360 -84l-182 -104q-203 418 -125 852q84 481 434 868l138 -96q-315 -377 -383 -764q-18 -109 -19.5 -203t17 -186.5t46 -174t74.5 -192.5z" glyph-name="parenleft" horiz-adv-x="630" unicode="("/><glyph d="M-121 -84q172 219 260 384t125 372q35 229 6.5 401t-120.5 363l172 96q215 -383 131 -868q-78 -432 -428 -852z" glyph-name="parenright" horiz-adv-x="630" unicode=")"/><glyph d="M823 1153l-24 -139h-193l113 -140l-115 -98l-112 137l-35 -196h-142l35 196l-162 -137l-82 98l160 140h-192l24 139h193l-113 135l117 103l115 -140l34 195h142l-35 -195l160 140l80 -103l-160 -135h192z" glyph-name="asterisk" horiz-adv-x="876" unicode="*"/><glyph d="M1114 653l-33 -186h-460l-82 -469h-187l82 469h-457l33 186h457l80 449h186l-80 -449h461z" glyph-name="plus" horiz-adv-x="1243" unicode="+"/><glyph d="M35 -152h-178l166 381h174z" glyph-name="comma" horiz-adv-x="421" unicode=","/><glyph d="M606 510h-602l39 213h602z" glyph-name="hyphen" horiz-adv-x="792" unicode="-"/><glyph d="M156 117q-10 -47 -51.5 -82t-90.5 -35q-47 0 -76.5 36t-21.5 81q8 49 49 85t90 36q51 0 80 -35t21 -86z" glyph-name="period" horiz-adv-x="389" unicode="."/><glyph d="M-125 0l852 1516h191l-855 -1516h-188z" glyph-name="slash" horiz-adv-x="894" unicode="/"/><glyph d="M432 -12q-199 0 -316.5 142t-82.5 341l100 573q35 199 203 341.5t366.5 142.5t316.5 -142.5t83 -341.5l-101 -573q-35 -199 -202.5 -341t-366.5 -142zM338 1044l-100 -573q-20 -115 47 -196.5t184 -81.5q115 0 211 81.5t117 196.5l100 573q20 115 -47.5 197t-182 82 t-212 -82t-117.5 -197z" glyph-name="zero" horiz-adv-x="1228" unicode="0"/><glyph d="M645 1516l-266 -1516h-207l238 1337h-267l31 179h471z" glyph-name="one" horiz-adv-x="718" unicode="1"/><glyph d="M891 207l-35 -207h-860l35 207l682 672q94 92 104 212.5t-67 192.5q-49 47 -124 55.5t-160 -29.5t-155 -118l-121 117q152 184 370 219t353 -98q129 -131 106.5 -331t-175.5 -347l-549 -545h596z" glyph-name="two" horiz-adv-x="1163" unicode="2"/><glyph d="M811 848q84 -63 122 -164.5t15 -218.5q-33 -197 -196.5 -337t-362.5 -140q-168 0 -281.5 104.5t-127.5 280.5l202 69q12 -113 78 -177t166 -64q115 0 206 77.5t111 188.5q20 113 -46 194.5t-183 81.5h-63l34 193h66q80 0 146.5 57.5t82.5 139.5q14 80 -33 138t-126 58 q-125 0 -209 -125l-144 103q66 94 171.5 157.5t222.5 63.5q164 0 259 -117t66 -281q-33 -169 -176 -282z" glyph-name="three" horiz-adv-x="1187" unicode="3"/><glyph d="M1073 487l-35 -196h-174l-51 -291h-207l51 291h-680l33 196l910 1029h159l-180 -1029h174zM242 487h450l113 637z" glyph-name="four" horiz-adv-x="1273" unicode="4"/><glyph d="M537 1020q211 0 334.5 -150.5t86.5 -363.5q-39 -213 -217 -365.5t-389 -152.5q-123 0 -222 57t-159 158l185 133q70 -137 235 -137q127 0 233.5 90t129 219t-51 219t-202.5 90q-109 0 -203 -67l-139 120l209 646h653l-35 -207h-481l-101 -312q68 23 134 23z" glyph-name="five" horiz-adv-x="1171" unicode="5"/><glyph d="M659 1022q213 0 337 -152.5t87.5 -365.5t-215 -364.5t-391.5 -151.5t-338 151.5t-88 364.5q25 139 103 241l594 771l157 -103l-307 -395q41 4 61 4zM878.5 504q22.5 127 -52 220t-203.5 93q-131 0 -239 -93t-130.5 -220t53.5 -219t205 -92q131 0 237.5 92t129 219z" glyph-name="six" horiz-adv-x="1269" unicode="6"/><glyph d="M999 1516l-36 -207l-682 -1309h-224l684 1309h-622l35 207h845z" glyph-name="seven" horiz-adv-x="989" unicode="7"/><glyph d="M840 852q84 -63 119.5 -166.5t15.5 -222.5q-33 -197 -197 -336t-360.5 -139t-311 139t-79.5 336q20 119 94 222t180 167q-102 113 -72 283q27 162 162 277.5t299 115.5q162 0 257 -116t67 -277q-29 -168 -174 -283zM653 1329q-80 0 -145.5 -57.5t-79.5 -137t32 -135 t126 -55.5t147.5 55.5t81.5 135t-34 137t-128 57.5zM453 186q115 0 210 82t115 195q20 115 -46 195.5t-181 80.5t-210 -80.5t-115.5 -195.5t47 -196t180.5 -81z" glyph-name="eight" horiz-adv-x="1200" unicode="8"/><glyph d="M700 1532q213 0 338 -151.5t88 -366.5q-31 -145 -102 -238l-584 -776h-235l379 502q-49 -4 -72 -4q-209 0 -333 152.5t-85 365.5q37 213 215 364.5t391 151.5zM921.5 1018q22.5 127 -53 218t-204.5 91t-237 -92t-130 -219q-23 -129 53 -221.5t205 -92.5q131 0 237.5 94.5 t129 221.5z" glyph-name="nine" horiz-adv-x="1202" unicode="9"/><glyph d="M293 905q-8 -47 -51 -83t-90.5 -36t-76 36t-20.5 83t49 83t91 36q47 0 76.5 -36t21.5 -83zM155.5 121q-8.5 -49 -51.5 -85t-90 -36q-49 0 -77.5 36t-20.5 85q10 49 50 84t89 35t79 -35t21.5 -84z" glyph-name="colon" horiz-adv-x="378" unicode=":"/><glyph d="M190 786q-49 0 -77.5 36t-20.5 83t50 83t89.5 36t78 -36t22.5 -83q-10 -47 -52.5 -83t-89.5 -36zM-133 -152l166 381h174l-162 -381h-178z" glyph-name="semicolon" horiz-adv-x="436" unicode=";"/><glyph d="M709 -37l-709 469l29 160l872 467l-39 -221l-616 -326l499 -326z" glyph-name="less" horiz-adv-x="968" unicode="&lt;"/><glyph d="M1044 649h-1003l33 187h1003zM985 309h-1005l32 187h1006z" glyph-name="equal" horiz-adv-x="1206" unicode="="/><glyph d="M-111 -37l37 223l617 326l-500 326l39 221l704 -467l-28 -160z" glyph-name="greater" horiz-adv-x="968" unicode=">"/><glyph d="M954 1075q-31 -162 -153.5 -285.5t-282.5 -158.5l-53 -307h-207l88 501h105q104 0 190 74t107 182q16 94 -33 160t-126 81t-166 -21.5t-142 -126.5l-177 81q76 127 204 203t267 76q190 0 301 -135.5t78 -323.5zM457 121q-8 -49 -50 -85t-91.5 -36t-78 35t-20.5 86 q10 49 50 84t89.5 35t79 -35t21.5 -84z" glyph-name="question" horiz-adv-x="1030" unicode="?"/><glyph d="M946 1528q317 0 502.5 -225.5t128.5 -548.5q-37 -209 -150.5 -355.5t-273.5 -146.5q-102 0 -167.5 59.5t-72.5 132.5q-106 -70 -221 -69q-154 0 -245 109.5t-64 263.5q29 154 158 262t284 108q113 0 189 -63l10 51h168l-100 -574q-6 -43 18.5 -74.5t69.5 -31.5 q74 0 125 82t73 186q39 125 18.5 244t-77.5 212t-163.5 149.5t-240.5 56.5q-248 0 -451.5 -175t-246.5 -423q-45 -246 98.5 -420t386.5 -174q96 0 189 29l10 -175q-123 -31 -227 -30q-317 0 -503.5 227t-131.5 545q57 317 322.5 542.5t584.5 225.5zM721 551q82 0 148.5 57.5 t82.5 139.5q14 80 -33 137t-128 57q-80 0 -148 -57.5t-82 -136.5q-14 -82 34 -139.5t126 -57.5z" glyph-name="at" horiz-adv-x="1710" unicode="@"/><glyph d="M1292 0h-225l-63 287h-697l-166 -287h-225l868 1516h166zM424 492h537l-150 675z" glyph-name="A" horiz-adv-x="1558" unicode="A"/><glyph d="M780 778q160 -129 123 -346q-33 -180 -181.5 -306t-326.5 -126h-452l266 1516h405q178 0 282.5 -126t74.5 -303q-33 -182 -191 -309zM375 1309l-80 -447h199q92 0 170.5 65.5t93.5 157.5q16 92 -38 158t-147 66h-198zM426 207q92 0 170 65.5t94.5 157.5t-38 158.5 t-146.5 66.5h-246l-80 -448h246z" glyph-name="B" horiz-adv-x="1097" unicode="B"/><glyph d="M672 -12q-319 0 -505.5 225t-131.5 545q57 317 322.5 543.5t578.5 226.5q299 0 506 -230l-150 -151q-172 176 -389 176q-231 0 -426.5 -166t-236.5 -399.5t96 -399t369 -165.5q233 0 450 174l92 -162q-272 -217 -575 -217z" glyph-name="C" horiz-adv-x="1507" unicode="C"/><glyph d="M625 1516q313 0 496.5 -222.5t128 -536t-316.5 -535.5t-575 -222h-415l266 1516h416zM395 207q227 0 416.5 161.5t230.5 389t-92 389.5t-360 162h-211l-195 -1102h211z" glyph-name="D" horiz-adv-x="1378" unicode="D"/><glyph d="M782 207l-34 -207h-805l266 1516h805l-37 -207h-598l-80 -459h557l-31 -182h-559l-82 -461h598z" glyph-name="E" horiz-adv-x="1028" unicode="E"/><glyph d="M150 0h-207l266 1516h770l-37 -207h-563l-80 -459h522l-30 -182h-525z" glyph-name="F" horiz-adv-x="972" unicode="F"/><glyph d="M1561 834l-21 -107q-66 -311 -319.5 -525t-558.5 -214q-319 0 -495.5 224t-121.5 544q55 317 320.5 544.5t582.5 227.5q289 0 496 -230l-152 -151q-170 176 -379 176q-231 0 -425.5 -166t-235.5 -401q-43 -238 86 -400.5t358 -162.5q203 0 374 131t239 327h-623l33 183 h842z" glyph-name="G" horiz-adv-x="1695" unicode="G"/><glyph d="M997 1516h205l-266 -1516h-205l119 668h-584l-119 -668h-204l266 1516h205l-117 -668h584z" glyph-name="H" horiz-adv-x="1228" unicode="H"/><glyph d="M-57 0l266 1516h203l-267 -1516h-202z" glyph-name="I" horiz-adv-x="438" unicode="I"/><glyph d="M504 1516h205l-203 -1149q-29 -164 -147.5 -265.5t-282.5 -101.5h-164l35 205h164q66 0 123 47t67 113z" glyph-name="J" horiz-adv-x="743" unicode="J"/><glyph d="M1098 1516l-604 -652l411 -864h-246l-327 692l-78 -84l-107 -608h-204l266 1516h205l-105 -596l551 596h238z" glyph-name="K" horiz-adv-x="1191" unicode="K"/><glyph d="M711 0h-768l266 1516h207l-232 -1309h564z" glyph-name="L" horiz-adv-x="962" unicode="L"/><glyph d="M1706 1516l-266 -1516h-207l182 1034l-659 -983h-113l-311 983l-182 -1034h-207l266 1516h168l373 -1176l784 1176h172z" glyph-name="M" horiz-adv-x="1732" unicode="M"/><glyph d="M1161 1516h207l-266 -1516h-160l-594 1133l-198 -1133h-207l266 1516h158l596 -1135z" glyph-name="N" horiz-adv-x="1394" unicode="N"/><glyph d="M952 1530q319 0 506 -226.5t129 -543.5q-57 -319 -322.5 -545.5t-582.5 -226.5q-319 0 -505.5 226t-131.5 546q57 317 323.5 543.5t583.5 226.5zM915 1323q-233 0 -427.5 -165t-235.5 -398q-41 -236 94 -401.5t371 -165.5q231 0 426.5 166.5t236.5 400.5 q41 231 -96.5 397t-368.5 166z" glyph-name="O" horiz-adv-x="1724" unicode="O"/><glyph d="M664 1516q182 0 289.5 -129.5t76.5 -311.5q-35 -182 -187.5 -312t-334.5 -130h-248l-110 -633h-207l266 1516h455zM545 838q98 0 179 68.5t99 168.5q16 96 -41 165t-155 69h-248l-82 -471h248z" glyph-name="P" horiz-adv-x="1081" unicode="P"/><glyph d="M1311 256l108 -131l-147 -125l-113 135q-225 -152 -479 -151q-319 0 -505.5 226t-129.5 546q55 319 321.5 544.5t585.5 225.5q317 0 503.5 -225.5t131.5 -544.5q-53 -289 -276 -500zM717 190q166 0 319 95l-98 121l145 122l107 -127q154 154 190 355q41 233 -95 398 t-370 165q-236 0 -430 -165t-235 -398q-41 -236 95 -401t372 -165z" glyph-name="Q" horiz-adv-x="1724" unicode="Q"/><glyph d="M1026 1075q-27 -152 -138.5 -269.5t-260.5 -156.5l272 -649h-235l-254 633h-152l-111 -633h-206l266 1516h455q182 0 289.5 -129.5t74.5 -311.5zM821 1075q16 96 -41 165t-153 69h-250l-82 -469h248q98 0 179 68.5t99 166.5z" glyph-name="R" horiz-adv-x="1159" unicode="R"/><glyph d="M356 -16q-223 0 -407 184l141 182q156 -143 297 -143q94 0 168 58.5t90 142.5q16 94 -61 170q-47 45 -211 135q-137 76 -209 171t-37 246q39 178 187.5 290t328.5 108q168 -2 295 -107l-135 -159q-102 74 -203 73q-92 0 -169 -60.5t-93 -150.5q-8 -45 3 -79.5t49 -65.5 t63.5 -46t87.5 -46q68 -33 117 -64.5t111 -91t88 -142.5t9 -183q-31 -178 -176.5 -300t-333.5 -122z" glyph-name="S" horiz-adv-x="1060" unicode="S"/><glyph d="M1077 1516l-35 -207h-358l-229 -1309h-207l231 1309h-358l37 207h919z" glyph-name="T" horiz-adv-x="1052" unicode="T"/><glyph d="M419.5 -12q-198.5 0 -314 140t-80.5 339l184 1049h205l-185 -1049q-18 -113 48.5 -192.5t179 -79.5t208 79.5t115.5 192.5l185 1049h204l-184 -1049q-35 -199 -201 -339t-364.5 -140z" glyph-name="U" horiz-adv-x="1196" unicode="U"/><glyph d="M1446 1516l-821 -1516h-156l-287 1516h221l211 -1135l609 1135h223z" glyph-name="V" horiz-adv-x="1445" unicode="V"/><glyph d="M1915 1516l-690 -1516h-164l-94 1065l-469 -1065h-162l-158 1516h219l113 -1070l467 1055h137l90 -1055l490 1070h221z" glyph-name="W" horiz-adv-x="1910" unicode="W"/><glyph d="M823 758l377 -758h-244l-290 580l-496 -580h-244l645 758l-378 758h243l293 -578l494 578h243z" glyph-name="X" horiz-adv-x="1480" unicode="X"/><glyph d="M1341 1516l-614 -811l-125 -705h-203l123 705l-329 811h247l226 -564l426 564h249z" glyph-name="Y" horiz-adv-x="1351" unicode="Y"/><glyph d="M1040 207l-34 -207h-1067l34 207l981 1116h-819l33 193h1075l-33 -185l-985 -1124h815z" glyph-name="Z" horiz-adv-x="1257" unicode="Z"/><glyph d="M283 -246h-392l326 1843h391l-33 -192h-200l-256 -1458h198z" glyph-name="bracketleft" horiz-adv-x="591" unicode="["/><glyph d="M662 0h-189l-321 1516h190z" glyph-name="backslash" horiz-adv-x="894" unicode="\"/><glyph d="M-139 -246l35 193h198l258 1458h-198l32 192h392l-326 -1843h-391z" glyph-name="bracketright" horiz-adv-x="591" unicode="]"/><glyph d="M2 547l606 788h160l330 -788h-221l-228 557l-424 -557h-223z" glyph-name="asciicircum" horiz-adv-x="1265" unicode="^"/><glyph d="M897 -168h-1042l30 168h1041z" glyph-name="underscore" horiz-adv-x="1171" unicode="_"/><glyph d="M399 1171l-372 218l114 157l367 -217z" glyph-name="grave" horiz-adv-x="538" unicode="`"/><glyph d="M1145 1024l-180 -1024h-174l20 129q-168 -145 -377 -145q-219 0 -347 155.5t-89 374.5q39 217 221 371.5t402 154.5q203 0 325 -145l23 129h176zM473 190q135 0 245.5 94.5t133.5 229.5q23 133 -54 227.5t-212 94.5q-133 0 -244 -94.5t-133 -227.5q-23 -135 54 -229.5 t210 -94.5z" glyph-name="a" horiz-adv-x="1257" unicode="a"/><glyph d="M641 1040q219 0 347 -154.5t89 -373.5t-221 -373.5t-401 -154.5q-203 0 -328 145l-21 -129h-174l252 1434h205l-92 -516q160 122 344 122zM489 193q133 0 245 93t134.5 226t-55.5 227.5t-211 94.5q-131 0 -242.5 -94.5t-134.5 -227.5q-23 -131 55 -225t209 -94z" glyph-name="b" horiz-adv-x="1249" unicode="b"/><glyph d="M434 -16q-217 0 -344 154.5t-88 373.5t219 373.5t400 154.5q217 0 352 -161l-154 -154q-90 111 -233 111q-131 0 -243 -94.5t-134.5 -227.5t55.5 -228.5t209 -95.5q143 0 272 115l99 -155q-201 -166 -410 -166z" glyph-name="c" horiz-adv-x="1089" unicode="c"/><glyph d="M612 1040q188 0 301 -122l91 516h204l-252 -1434h-174l23 129q-172 -145 -379 -145q-219 0 -346 154.5t-88 373.5t220 373.5t400 154.5zM465 193q133 0 244.5 94t134.5 225q23 133 -55 227.5t-211.5 94.5t-244 -94.5t-132.5 -227.5q-23 -131 54 -225t210 -94z" glyph-name="d" horiz-adv-x="1249" unicode="d"/><glyph d="M1026 446h-827q8 -123 85.5 -193.5t192.5 -70.5q168 0 332 135l96 -149q-215 -184 -465 -184q-229 0 -354 160.5t-86 381.5q39 219 215 366.5t393 147.5q225 0 344 -164t74 -430zM229 610h602q0 106 -71.5 179t-184.5 73q-111 0 -209 -69.5t-137 -182.5z" glyph-name="e" horiz-adv-x="1208" unicode="e"/><glyph d="M510 1241q-68 0 -123 -47t-68 -113l-10 -57h326l-33 -180h-326l-147 -844h-203l189 1075q31 164 150.5 261.5t277.5 97.5h164l-35 -193h-162z" glyph-name="f" horiz-adv-x="704" unicode="f"/><glyph d="M1135 1024l-160 -907q-49 -272 -211 -407.5t-356 -135.5q-160 0 -275 88l109 170q94 -59 188 -59q131 0 224.5 88t121.5 254q-164 -131 -352 -131q-219 0 -347 154.5t-89 373.5t221 373.5t401 154.5q203 0 326 -143l20 127h179zM463 190q133 0 243.5 94.5t135.5 227.5 q23 133 -54 228.5t-210.5 95.5t-245 -95.5t-135.5 -228.5q-23 -133 55 -227.5t211 -94.5z" glyph-name="g" horiz-adv-x="1247" unicode="g"/><glyph d="M559 1040q184 0 291.5 -130t75.5 -314l-105 -596h-207l107 596q16 98 -42 168t-155 70q-98 0 -180 -70t-98 -168l-105 -596h-209l252 1434h209l-84 -476q119 82 250 82z" glyph-name="h" horiz-adv-x="1067" unicode="h"/><glyph d="M397 1237q-10 -55 -52 -90t-99 -35q-49 0 -81 36t-22 89q10 49 54.5 87t93.5 38q55 0 84.5 -37t21.5 -88zM154 0h-205l182 1024h203z" glyph-name="i" horiz-adv-x="454" unicode="i"/><glyph d="M516 1239q-10 -53 -52 -90t-95 -37q-51 0 -82 36t-21 87q8 53 51 90t97 37q51 0 80.5 -37t21.5 -86zM287 53q-61 -336 -396 -479l-75 174q229 115 264 305l172 971h205z" glyph-name="j" horiz-adv-x="583" unicode="j"/><glyph d="M756 0h-246l-236 438l-71 -67l-64 -371h-207l252 1434h207l-137 -779l395 369h244l-459 -436z" glyph-name="k" horiz-adv-x="1034" unicode="k"/><glyph d="M354 207l-35 -207h-57q-332 0 -268 348l190 1086h207l-192 -1086q-12 -70 16.5 -105.5t85.5 -35.5h53z" glyph-name="l" horiz-adv-x="557" unicode="l"/><glyph d="M598 0l107 606q16 94 -39.5 162t-151.5 68t-175 -68t-93 -162l-109 -606h-205l181 1024h170l-17 -98q123 115 291 114q199 0 297 -161q156 162 363 161q178 0 284.5 -128t73.5 -306l-107 -606h-206l108 606q16 96 -40 163t-150 67q-96 0 -175 -68t-96 -162l-106 -606 h-205z" glyph-name="m" horiz-adv-x="1740" unicode="m"/><glyph d="M559 1040q176 0 278.5 -127t71.5 -307l-106 -606h-207l109 606q14 94 -41.5 162t-149.5 68q-96 0 -176 -68t-94 -162l-109 -606h-205l181 1024h170l-15 -88q133 104 293 104z" glyph-name="n" horiz-adv-x="1073" unicode="n"/><glyph d="M612 1040q219 0 347 -155.5t89.5 -372.5t-221 -372.5t-401.5 -155.5q-217 0 -345 154.5t-89 373.5t221 373.5t399 154.5zM575.5 834q-133.5 0 -244 -94.5t-132.5 -227.5q-25 -133 53 -227.5t211 -94.5t243.5 94.5t135.5 227.5q23 133 -55 227.5t-211.5 94.5z" glyph-name="o" horiz-adv-x="1220" unicode="o"/><glyph d="M455 -16q-186 0 -299 122l-90 -516h-205l252 1434h174l-23 -129q172 145 377 145q219 0 347 -154.5t89 -373.5t-221 -373.5t-401 -154.5zM602 831q-131 0 -242.5 -94t-134.5 -225q-23 -133 55 -227.5t209 -94.5q133 0 245 94.5t134.5 227.5t-55.5 226t-211 93z" glyph-name="p" horiz-adv-x="1249" unicode="p"/><glyph d="M430 -16q-219 0 -346 154.5t-88 373.5t220 373.5t400 154.5q207 0 326 -145l25 129h174l-252 -1434h-205l90 516q-156 -122 -344 -122zM582 831q-133 0 -244 -94t-133 -225q-23 -133 54 -227.5t210 -94.5t244.5 94.5t134.5 227.5q23 131 -55 225t-211 94z" glyph-name="q" horiz-adv-x="1251" unicode="q"/><glyph d="M664 1024l-35 -197h-117q-98 0 -174 -58t-92 -153l-109 -616h-205l181 1024h170l-17 -86q98 86 258 86h140z" glyph-name="r" horiz-adv-x="724" unicode="r"/><glyph d="M717 950l-117 -149q-98 68 -186 67q-61 0 -109.5 -28.5t-56.5 -73.5q-6 -33 17.5 -58.5t50 -38t90.5 -36.5q125 -47 195.5 -132t49.5 -204q-23 -131 -139.5 -222t-269.5 -91q-170 0 -320 104l111 170q115 -78 237 -78q72 0 116 36t54 85q8 49 -31.5 85t-146.5 79 q-51 23 -80.5 39t-71.5 51t-58.5 86t-4.5 115q20 127 131 205.5t258 78.5q144 0 281 -90z" glyph-name="s" horiz-adv-x="854" unicode="s"/><glyph d="M506 207l-35 -207h-178q-164 0 -245 99.5t-50 267.5l172 983h207l-58 -326h336l-32 -180h-336l-84 -479q-10 -66 26.5 -112t102.5 -46h174z" glyph-name="t" horiz-adv-x="716" unicode="t"/><glyph d="M362.5 -16q-180.5 0 -285 127t-71.5 307l107 606h204l-108 -606q-16 -94 40 -162t150.5 -68t174 68t96.5 162l106 606h207l-109 -606q-31 -180 -181 -307t-330.5 -127z" glyph-name="u" horiz-adv-x="1075" unicode="u"/><glyph d="M457 0h-135l-240 1024h217l150 -686l393 686h217z" glyph-name="v" horiz-adv-x="1136" unicode="v"/><glyph d="M805 989h123l137 -667l385 702h217l-577 -1024h-142l-137 676l-375 -676h-141l-219 1024h219l137 -702z" glyph-name="w" horiz-adv-x="1738" unicode="w"/><glyph d="M926 0h-244l-199 330l-313 -330h-244l480 512l-297 512h243l195 -332l311 332h246l-479 -512z" glyph-name="x" horiz-adv-x="1206" unicode="x"/><glyph d="M1067 1024l-623 -1061q-186 -311 -503 -389l-35 184q250 68 389 326l-219 940h221l156 -668l389 668h225z" glyph-name="y" horiz-adv-x="1173" unicode="y"/><glyph d="M768 205l-35 -205h-825l35 205l680 637h-574l33 182h811l-33 -184l-665 -635h573z" glyph-name="z" horiz-adv-x="985" unicode="z"/><glyph d="M569 -47l-34 -193h-84q-143 0 -226.5 102.5t-58.5 246.5l59 327q10 66 -27.5 112t-103.5 46h-86l35 194h86q66 0 120 46.5t64 109.5l58 330q27 145 145.5 246.5t261.5 101.5h84l-33 -192h-84q-63 0 -117.5 -46.5t-66.5 -109.5l-57 -330q-25 -143 -156 -254 q92 -100 68 -254l-60 -327q-10 -63 28 -109.5t101 -46.5h84z" glyph-name="braceleft" horiz-adv-x="821" unicode="{"/><glyph d="M-135 -395l338 1911h176l-336 -1911h-178z" glyph-name="bar" horiz-adv-x="409" unicode="|"/><glyph d="M-123 -47h82q66 0 119 46t63 110l60 327q25 150 155 254q-92 109 -67 254l57 330q12 63 -24.5 109.5t-100.5 46.5h-84l33 192h84q143 0 227 -101.5t58 -246.5l-58 -330q-12 -63 26 -109.5t101 -46.5h86l-35 -194h-86q-63 0 -116.5 -46t-65.5 -112l-59 -327 q-25 -143 -144.5 -246t-263.5 -103h-82z" glyph-name="braceright" horiz-adv-x="821" unicode="}"/><glyph d="M154 231l-174 76q111 289 352 383q82 33 158.5 37t146.5 -22.5t108.5 -49t100.5 -63.5q193 -133 313 -82q131 55 246 278l186 -79q-35 -76 -79 -145.5t-136 -153.5t-196 -119q-57 -18 -115.5 -21.5t-104 5t-93.5 30t-79.5 41t-72.5 47.5q-47 33 -81 52.5t-82 39t-96 17.5 t-96 -27q-112 -60 -206 -244z" glyph-name="asciitilde" horiz-adv-x="1742" unicode="~"/><glyph d="M301 1516q49 0 78 -36t20.5 -85t-49.5 -83t-90 -34t-77.5 34t-20.5 83q8 51 49 86t90 35zM141 1192h203l-209 -1192h-203z" glyph-name="exclamdown" horiz-adv-x="428" unicode="¡"/><glyph d="M739 305l97 -155q-162 -135 -328 -160l-41 -228h-176l41 230q-178 35 -273.5 181t-62.5 339t180.5 338t337.5 180l37 213h176l-37 -209q160 -23 277 -155l-154 -154q-68 80 -160 102l-110 -628q106 26 196 106zM201 514q-18 -104 28.5 -189t139.5 -118l108 612 q-102 -33 -179 -117t-97 -188z" glyph-name="cent" horiz-adv-x="1067" unicode="¢"/><glyph d="M872 504h199l-24 -133q-29 -164 -159 -267.5t-296 -103.5h-670l33 199h301l51 288q16 86 -20 166h-256l30 176h129q-74 143 -51 281q31 176 172.5 296t327.5 120q145 0 249.5 -80t158.5 -223l-177 -97q-86 203 -266 201q-96 -2 -172 -65.5t-90 -155.5q-8 -45 3 -93 t25.5 -78t51.5 -95l6 -11h471l-31 -176h-362q18 -76 2 -161l-51 -293h170q84 0 147.5 49t75.5 123z" glyph-name="sterling" horiz-adv-x="1236" unicode="£"/><glyph d="M1110 885l-115 -99q51 -115 27 -254q-29 -147 -125 -264l86 -104l-164 -137l-84 100q-137 -86 -293 -86q-152 0 -264 86l-119 -100l-114 137l123 106q-55 121 -29 262q25 133 113 252l-80 101l164 137l75 -92q143 94 305 94q156 0 271 -92l106 90zM229.5 532.5 q-22.5 -124.5 49 -214t196.5 -89.5q123 0 228.5 89.5t125.5 213.5q20 123 -53.5 212.5t-195.5 89.5q-125 0 -226.5 -88.5t-124 -213z" glyph-name="currency" horiz-adv-x="1220" unicode="¤"/><glyph d="M1311 1516l-471 -623h264l-33 -193h-375l-22 -120h375l-33 -191h-375l-70 -389h-202l67 389h-375l35 191h373l23 120h-375l33 193h266l-254 623h248l225 -564l426 564h250z" glyph-name="yen" horiz-adv-x="1290" unicode="¥"/><glyph d="M612 246q125 -111 93 -301q-29 -164 -162 -270.5t-305 -106.5q-209 0 -381 162l135 182q129 -125 266 -125q92 0 156.5 49t81.5 129q10 63 -21 111.5t-86 77t-118.5 66.5t-117 77t-81 110.5t-11.5 163.5q20 111 89 194t161 126q-104 94 -73 258q29 162 169 274.5 t304 110.5q156 0 260 -109l-129 -161q-70 68 -166 67q-78 0 -147.5 -50t-86.5 -132q-10 -55 22 -97t85 -68t114.5 -60.5t112.5 -71.5t78 -104.5t10 -157.5q-37 -213 -252 -344zM459 362q76 23 133 86.5t67 131.5q14 78 -32.5 127t-128.5 49q-84 0 -149.5 -50.5t-78.5 -125.5 q-26 -148 189 -218z" glyph-name="section" horiz-adv-x="1015" unicode="§"/><glyph d="M311 1260q-6 -39 -37.5 -66t-70.5 -27t-60.5 27t-15.5 66q8 39 39 66.5t69.5 27.5t61 -27.5t14.5 -66.5zM596 1260q-6 -39 -38 -66t-70.5 -27t-60 27t-15.5 66q8 39 38.5 66.5t69.5 27.5t61.5 -27.5t14.5 -66.5z" glyph-name="dieresis" horiz-adv-x="638" unicode="¨"/><glyph d="M676 -12q-322 0 -508 225t-129 547q57 319 322.5 543.5t584.5 224.5q317 0 503.5 -225.5t129.5 -542.5q-57 -319 -321.5 -545.5t-581.5 -226.5zM707 168q244 0 446.5 172t245.5 420q45 246 -96.5 417t-387.5 171q-248 0 -450.5 -172t-245.5 -416q-45 -246 98.5 -419 t389.5 -173zM750 375q-162 0 -255.5 114.5t-64.5 276.5q27 162 161 276.5t296 114.5q168 0 264 -125l-139 -133q-63 78 -154 78q-86 0 -157.5 -61.5t-88 -147.5t34.5 -147.5t137 -61.5q96 0 185 82l90 -137q-153 -129 -309 -129z" glyph-name="copyright" horiz-adv-x="1710" unicode="©"/><glyph d="M506 219l-160 -131l-350 428l500 424l114 -125l-352 -299zM858 219l-162 -131l-350 428l500 424l115 -125l-353 -299z" glyph-name="guillemotleft" horiz-adv-x="1073" unicode="«"/><glyph d="M809 295l63 364h-872l35 199h1071l-98 -563h-199z" glyph-name="logicalnot" horiz-adv-x="1243" unicode="¬"/><glyph d="M946 1528q317 0 503.5 -225.5t129.5 -545t-321.5 -544.5t-581.5 -225q-322 0 -508 225t-129 544.5t321 545t586 225.5zM1407 758q45 246 -99.5 421t-389.5 175q-248 0 -455 -174t-252 -422q-43 -246 103.5 -421t392.5 -175q244 0 450.5 175t249.5 421zM887 1171 q98 0 155.5 -69.5t38.5 -167.5q-12 -72 -60 -129t-116 -88l135 -328h-170l-120 307h-41l-56 -307h-149l139 782h244zM932 934q6 37 -14.5 62.5t-57.5 25.5h-94l-31 -178h92q37 0 68 25.5t37 64.5z" glyph-name="registered" horiz-adv-x="1712" unicode="®"/><glyph d="M657 1167h-546l30 176h549z" glyph-name="macron" horiz-adv-x="718" unicode="¯"/><glyph d="M465 1516q121 0 190.5 -85t49.5 -206q-20 -123 -121 -208t-221.5 -85t-191.5 85t-50 208q20 121 121.5 206t222.5 85zM436 1354q-51 0 -97 -39t-56 -90q-8 -53 23.5 -92t84.5 -39t98.5 38.5t53.5 92.5q10 51 -23 90t-84 39z" glyph-name="degree" horiz-adv-x="755" unicode="°"/><glyph d="M1071 881l-35 -191h-418l-61 -350h-186l61 350h-416l35 191h416l57 329h187l-58 -329h418zM915 0h-1019l32 188h1022z" glyph-name="plusminus" horiz-adv-x="1161" unicode="±"/><glyph d="M53 592l29 158l385 376q53 49 61.5 113t-34.5 104q-39 37 -109 25t-127 -74l-90 84q96 115 230 135.5t214 -61.5t65 -206t-112 -218l-286 -278h325l-29 -158h-522z" glyph-name="uni00B2" horiz-adv-x="737" unicode="²"/><glyph d="M567 1112q92 -86 68 -219q-20 -119 -119.5 -205t-220.5 -86q-104 0 -175 67.5t-77 176.5l147 51q8 -66 45 -100.5t89 -34.5q57 0 103 38t54 95q10 57 -22.5 98t-93.5 41h-43l26 146h45q39 0 71 26.5t38 67.5q8 37 -14.5 64.5t-61.5 27.5q-59 0 -98 -59l-107 75 q96 133 240 134q102 0 157.5 -72t38.5 -172q-16 -90 -90 -160z" glyph-name="uni00B3" horiz-adv-x="763" unicode="³"/><glyph d="M193 1171l-54 158l443 217l59 -157z" glyph-name="acute" horiz-adv-x="538" unicode="´"/><glyph d="M1042 1516l-309 -1760h-180l281 1596h-121l-281 -1596h-178l149 852q-174 20 -269 148.5t-62 304.5q33 186 186.5 320.5t333.5 134.5h450z" glyph-name="paragraph" horiz-adv-x="1071" unicode="¶"/><glyph d="M41 -500q-92 0 -147.5 62.5t-36.5 156.5h139q-6 -31 15.5 -54t54.5 -23q35 0 63.5 23.5t34.5 58t-14.5 58t-55.5 23.5h-71l38 220h146l-17 -86q63 -25 96 -83.5t21 -131.5q-16 -94 -94 -159t-172 -65z" glyph-name="cedilla" horiz-adv-x="620" unicode="¸"/><glyph d="M137 602l137 778h-157l24 136h314l-160 -914h-158z" glyph-name="uni00B9" horiz-adv-x="483" unicode="¹"/><glyph d="M-66 219l351 297l-246 299l158 125l350 -424l-500 -428zM285 219l350 297l-246 299l158 125l350 -424l-500 -428z" glyph-name="guillemotright" horiz-adv-x="1073" unicode="»"/><glyph d="M29 0l1196 1516h209l-1196 -1516h-209zM199 602l137 778h-158l25 136h313l-160 -914h-157zM1341 315l-24 -145h-98l-31 -170h-156l31 170h-391l24 145l531 598h121l-105 -598h98zM866 315h221l56 312z" glyph-name="onequarter" horiz-adv-x="1583" unicode="¼"/><glyph d="M29 0l1196 1516h209l-1196 -1516h-209zM199 602l137 778h-158l25 136h313l-160 -914h-157zM901 0l27 158l387 377q53 49 59 111.5t-39 103.5q-39 37 -105.5 24.5t-121.5 -76.5l-92 88q96 115 228 135.5t216 -61.5q80 -80 64.5 -205t-111.5 -219l-287 -278h326l-29 -158 h-522z" glyph-name="onehalf" horiz-adv-x="1738" unicode="½"/><glyph d="M567 1112q92 -86 68 -219q-20 -119 -119.5 -205t-220.5 -86q-104 0 -175 67.5t-77 176.5l147 51q8 -66 45 -100.5t89 -34.5q57 0 103 38t54 95q10 57 -22.5 98t-93.5 41h-43l26 146h45q39 0 71 26.5t38 67.5q8 37 -14.5 64.5t-61.5 27.5q-59 0 -98 -59l-107 75 q96 133 240 134q102 0 157.5 -72t38.5 -172q-16 -90 -90 -160zM172 0l1198 1516h209l-1198 -1516h-209zM1487 315l-27 -145h-98l-31 -170h-153l28 170h-391l27 145l528 598h121l-105 -598h101zM1010 315h221l55 312z" glyph-name="threequarters" horiz-adv-x="1716" unicode="¾"/><glyph d="M479 1395q8 51 50 86t91.5 35t78 -35t20.5 -86q-8 -49 -50 -84t-89 -35q-49 0 -79 35t-22 84zM-18 440q29 162 152.5 286t283.5 159l53 307h207l-88 -502h-107q-104 0 -190 -73.5t-105 -182.5q-16 -94 33 -159.5t126 -81t165 21.5t141 127l176 -82 q-76 -127 -203.5 -202.5t-267.5 -75.5q-188 0 -298.5 135t-77.5 323z" glyph-name="questiondown" horiz-adv-x="1030" unicode="¿"/><glyph d="M987 1628l-373 217l115 158l367 -217zM1292 0h-225l-63 287h-697l-166 -287h-225l868 1516h166zM424 492h537l-150 675z" glyph-name="Agrave" horiz-adv-x="1558" unicode="À"/><glyph d="M780 1628l-55 158l442 217l60 -158zM1292 0h-225l-63 287h-697l-166 -287h-225l868 1516h166zM424 492h537l-150 675z" glyph-name="Aacute" horiz-adv-x="1558" unicode="Á"/><glyph d="M1229 1624h-225l-97 143l-145 -143h-219l329 307h136zM1292 0h-225l-63 287h-697l-166 -287h-225l868 1516h166zM424 492h537l-150 675z" glyph-name="Acircumflex" horiz-adv-x="1558" unicode="Â"/><glyph d="M682 1626l-125 94q43 57 108.5 93t127.5 36q43 0 104 -27.5t92 -27.5q61 0 127 74l133 -92q-123 -145 -270 -146q-57 0 -112.5 28t-78.5 28q-59 -1 -106 -60zM1292 0h-225l-63 287h-697l-166 -287h-225l868 1516h166zM424 492h537l-150 675z" glyph-name="Atilde" horiz-adv-x="1558" unicode="Ã"/><glyph d="M854 1716q-6 -37 -39 -64.5t-71.5 -27.5t-60 27.5t-15.5 64.5q6 39 37.5 66.5t70.5 27.5t61.5 -27.5t16.5 -66.5zM1137 1716q-6 -37 -38 -64.5t-71 -27.5t-60.5 27.5t-15.5 64.5q6 39 38 66.5t71 27.5t60.5 -27.5t15.5 -66.5zM1292 0h-225l-63 287h-697l-166 -287h-225 l868 1516h166zM424 492h537l-150 675z" glyph-name="Adieresis" horiz-adv-x="1558" unicode="Ä"/><glyph d="M962.5 2046q88.5 0 138.5 -61.5t36 -149.5q-16 -86 -88 -148.5t-160 -62.5t-139.5 62.5t-36.5 148.5q16 88 88.5 149.5t161 61.5zM942 1923q-37 0 -67.5 -25.5t-37 -62.5t15 -61.5t56.5 -24.5q37 0 68 24.5t37 61.5t-15.5 62.5t-56.5 25.5zM1292 0h-225l-63 287h-697 l-166 -287h-225l868 1516h166zM424 492h537l-150 675z" glyph-name="Aring" horiz-adv-x="1558" unicode="Å"/><glyph d="M1485 207l-37 -207h-764l51 289h-416l-174 -289h-229l934 1516h864l-35 -207h-559l-82 -461h525l-33 -180h-522l-82 -461h559zM772 494l133 759l-471 -759h338z" glyph-name="AE" horiz-adv-x="1730" unicode="Æ"/><glyph d="M936 1528q299 0 506 -230l-150 -151q-172 176 -389 176q-231 0 -426.5 -166t-236.5 -399.5t96 -399t369 -165.5q233 0 450 174l92 -162q-256 -205 -547 -217l-10 -49q63 -25 96 -83.5t21 -131.5q-16 -94 -94 -159t-172 -65q-92 0 -147.5 62.5t-37.5 156.5h140 q-6 -31 15 -54t54 -23q35 0 63.5 23.5t35 58t-14 58t-55.5 23.5h-72l35 191q-274 43 -423.5 259t-98.5 503q57 317 322.5 543.5t578.5 226.5z" glyph-name="Ccedilla" horiz-adv-x="1507" unicode="Ç"/><glyph d="M735 1628l-373 217l117 158l367 -217zM782 207l-34 -207h-805l266 1516h805l-37 -207h-598l-80 -459h557l-31 -182h-559l-82 -461h598z" glyph-name="Egrave" horiz-adv-x="1028" unicode="È"/><glyph d="M528 1628l-53 158l443 217l59 -158zM782 207l-34 -207h-805l266 1516h805l-37 -207h-598l-80 -459h557l-31 -182h-559l-82 -461h598z" glyph-name="Eacute" horiz-adv-x="1028" unicode="É"/><glyph d="M979 1624h-227l-97 143l-143 -143h-221l330 307h137zM782 207l-34 -207h-805l266 1516h805l-37 -207h-598l-80 -459h557l-31 -182h-559l-82 -461h598z" glyph-name="Ecircumflex" horiz-adv-x="1028" unicode="Ê"/><glyph d="M604 1716q-8 -37 -40 -64.5t-70.5 -27.5t-61 27.5t-14.5 64.5q6 39 37.5 66.5t70.5 27.5t61.5 -27.5t16.5 -66.5zM887 1716q-8 -37 -40 -64.5t-69 -27.5q-39 0 -61.5 27.5t-14.5 64.5q6 39 38 66.5t71 27.5t60.5 -27.5t15.5 -66.5zM782 207l-34 -207h-805l266 1516h805 l-37 -207h-598l-80 -459h557l-31 -182h-559l-82 -461h598z" glyph-name="Edieresis" horiz-adv-x="1028" unicode="Ë"/><glyph d="M440 1618l-370 217l114 158l367 -217zM-41 0l266 1516h203l-266 -1516h-203z" glyph-name="Igrave" horiz-adv-x="466" unicode="Ì"/><glyph d="M231 1618l-53 158l445 217l59 -158zM-43 0l266 1516h203l-266 -1516h-203z" glyph-name="Iacute" horiz-adv-x="468" unicode="Í"/><glyph d="M702 1614h-225l-98 141l-143 -141h-222l330 307h135zM-25 0l267 1516h204l-266 -1516h-205z" glyph-name="Icircumflex" horiz-adv-x="505" unicode="Î"/><glyph d="M293 1706q-8 -39 -39 -65.5t-70 -26.5t-61.5 26.5t-13.5 65.5q6 39 37.5 66.5t70.5 27.5t60.5 -27.5t15.5 -66.5zM578 1706q-8 -39 -40 -65.5t-69 -26.5q-39 0 -62.5 26.5t-15.5 65.5q6 39 39 66.5t72 27.5t60.5 -27.5t15.5 -66.5zM-57 0l266 1516h203l-267 -1516h-202z " glyph-name="Idieresis" horiz-adv-x="438" unicode="Ï"/><glyph d="M702 1516q313 0 496.5 -222.5t128.5 -536t-316 -535.5t-575 -222h-418l119 676h-76l33 192h76l115 648h417zM1120 757.5q39 227.5 -94 389.5t-360 162h-211l-78 -441h90l-33 -192h-92l-82 -469h211q227 0 418.5 161.5t230.5 389z" glyph-name="Eth" horiz-adv-x="1456" unicode="Ð"/><glyph d="M578 1626l-125 94q43 57 108.5 93t126.5 36q45 0 104.5 -27.5t92.5 -27.5q61 0 127 74l133 -92q-123 -145 -271 -146q-59 0 -114 28t-76 28q-59 -1 -106 -60zM1161 1516h207l-266 -1516h-160l-594 1133l-198 -1133h-207l266 1516h158l596 -1135z" glyph-name="Ntilde" horiz-adv-x="1394" unicode="Ñ"/><glyph d="M1063 1628l-373 217l117 158l367 -217zM952 1530q319 0 506 -226.5t129 -543.5q-57 -319 -322.5 -545.5t-582.5 -226.5q-319 0 -505.5 226t-131.5 546q57 317 323.5 543.5t583.5 226.5zM915 1323q-233 0 -427.5 -165t-235.5 -398q-41 -236 94 -401.5t371 -165.5 q231 0 426.5 166.5t236.5 400.5q41 231 -96.5 397t-368.5 166z" glyph-name="Ograve" horiz-adv-x="1724" unicode="Ò"/><glyph d="M856 1628l-53 158l442 217l60 -158zM952 1530q319 0 506 -226.5t129 -543.5q-57 -319 -322.5 -545.5t-582.5 -226.5q-319 0 -505.5 226t-131.5 546q57 317 323.5 543.5t583.5 226.5zM915 1323q-233 0 -427.5 -165t-235.5 -398q-41 -236 94 -401.5t371 -165.5 q231 0 426.5 166.5t236.5 400.5q41 231 -96.5 397t-368.5 166z" glyph-name="Oacute" horiz-adv-x="1724" unicode="Ó"/><glyph d="M1307 1624h-228l-96 143l-145 -143h-220l330 307h137zM952 1530q319 0 506 -226.5t129 -543.5q-57 -319 -322.5 -545.5t-582.5 -226.5q-319 0 -505.5 226t-131.5 546q57 317 323.5 543.5t583.5 226.5zM915 1323q-233 0 -427.5 -165t-235.5 -398q-41 -236 94 -401.5 t371 -165.5q231 0 426.5 166.5t236.5 400.5q41 231 -96.5 397t-368.5 166z" glyph-name="Ocircumflex" horiz-adv-x="1724" unicode="Ô"/><glyph d="M758 1626l-125 94q43 57 108.5 93t126.5 36q45 0 105.5 -27.5t91.5 -27.5q66 0 127 74l135 -92q-125 -145 -272 -146q-57 0 -112.5 28t-78.5 28q-55 -1 -106 -60zM952 1530q319 0 506 -226.5t129 -543.5q-57 -319 -322.5 -545.5t-582.5 -226.5q-319 0 -505.5 226 t-131.5 546q57 317 323.5 543.5t583.5 226.5zM915 1323q-233 0 -427.5 -165t-235.5 -398q-41 -236 94 -401.5t371 -165.5q231 0 426.5 166.5t236.5 400.5q41 231 -96.5 397t-368.5 166z" glyph-name="Otilde" horiz-adv-x="1724" unicode="Õ"/><glyph d="M930 1716q-6 -37 -38 -64.5t-71 -27.5t-61.5 27.5t-14.5 64.5q6 39 38 66.5t71 27.5t60.5 -27.5t15.5 -66.5zM1214 1716q-8 -37 -39.5 -64.5t-68.5 -27.5q-39 0 -61.5 27.5t-16.5 64.5q6 39 39 66.5t72 27.5t60 -27.5t15 -66.5zM952 1530q319 0 506 -226.5t129 -543.5 q-57 -319 -322.5 -545.5t-582.5 -226.5q-319 0 -505.5 226t-131.5 546q57 317 323.5 543.5t583.5 226.5zM915 1323q-233 0 -427.5 -165t-235.5 -398q-41 -236 94 -401.5t371 -165.5q231 0 426.5 166.5t236.5 400.5q41 231 -96.5 397t-368.5 166z" glyph-name="Odieresis" horiz-adv-x="1724" unicode="Ö"/><glyph d="M868 197l-153 -134l-266 326l-392 -332l-108 131l391 332l-268 326l155 131l267 -324l372 316l109 -133l-373 -316z" glyph-name="multiply" horiz-adv-x="1099" unicode="×"/><glyph d="M1376 1384q129 -106 186.5 -271t24.5 -353q-57 -319 -322.5 -545.5t-582.5 -226.5q-195 0 -354 94l-66 -82l-115 76l72 90q-111 109 -158 264.5t-16 329.5q57 317 323.5 543.5t583.5 226.5q168 0 308 -70l61 78l115 -80zM252 760q-43 -252 108 -418l756 940 q-92 41 -201 41q-233 0 -427.5 -165t-235.5 -398zM1380 760q25 135 -15 252.5t-130 195.5l-768 -952q111 -63 250 -63q231 0 426.5 167t236.5 400z" glyph-name="Oslash" horiz-adv-x="1724" unicode="Ø"/><glyph d="M805 1628l-373 217l117 158l366 -217zM419.5 -12q-198.5 0 -314 140t-80.5 339l184 1049h205l-185 -1049q-18 -113 48.5 -192.5t179 -79.5t208 79.5t115.5 192.5l185 1049h204l-184 -1049q-35 -199 -201 -339t-364.5 -140z" glyph-name="Ugrave" horiz-adv-x="1196" unicode="Ù"/><glyph d="M598 1628l-53 158l442 217l60 -158zM419.5 -12q-198.5 0 -314 140t-80.5 339l184 1049h205l-185 -1049q-18 -113 48.5 -192.5t179 -79.5t208 79.5t115.5 192.5l185 1049h204l-184 -1049q-35 -199 -201 -339t-364.5 -140z" glyph-name="Uacute" horiz-adv-x="1196" unicode="Ú"/><glyph d="M1049 1624h-228l-96 143l-143 -143h-222l330 307h137zM419.5 -12q-198.5 0 -314 140t-80.5 339l184 1049h205l-185 -1049q-18 -113 48.5 -192.5t179 -79.5t208 79.5t115.5 192.5l185 1049h204l-184 -1049q-35 -199 -201 -339t-364.5 -140z" glyph-name="Ucircumflex" horiz-adv-x="1196" unicode="Û"/><glyph d="M674 1716q-8 -37 -40 -64.5t-71 -27.5t-61.5 27.5t-14.5 64.5q6 39 38 66.5t71 27.5t61.5 -27.5t16.5 -66.5zM956 1716q-8 -37 -39.5 -64.5t-68.5 -27.5q-39 0 -61.5 27.5t-14.5 64.5q6 39 38 66.5t71 27.5t60 -27.5t15 -66.5zM419.5 -12q-198.5 0 -314 140t-80.5 339 l184 1049h205l-185 -1049q-18 -113 48.5 -192.5t179 -79.5t208 79.5t115.5 192.5l185 1049h204l-184 -1049q-35 -199 -201 -339t-364.5 -140z" glyph-name="Udieresis" horiz-adv-x="1196" unicode="Ü"/><glyph d="M670 1628l-54 158l443 217l59 -158zM1341 1516l-614 -811l-125 -705h-203l123 705l-329 811h247l226 -564l426 564h249z" glyph-name="Yacute" horiz-adv-x="1351" unicode="Ý"/><glyph d="M612 1225q182 0 290 -129t75 -311.5t-185.5 -313.5t-334.5 -131h-248l-59 -340h-207l266 1516h207l-51 -291h247zM492 547q100 0 181 68.5t99 168.5q16 96 -41 165t-156 69h-247l-84 -471h248z" glyph-name="Thorn" horiz-adv-x="1081" unicode="Þ"/><glyph d="M739 782q72 -59 103.5 -151t13.5 -197q-31 -172 -176 -303t-303 -131h-101l35 199h92q86 0 162 70.5t92 162.5q16 94 -35 167t-135 73h-94l35 196h86q80 2 138.5 69t72.5 150q16 98 -39 164t-151 66h-162l-232 -1317h-198l266 1516h360q178 0 282.5 -124t72.5 -300 q-31 -183 -185 -310z" glyph-name="germandbls" horiz-adv-x="1050" unicode="ß"/><glyph d="M735 1143l-373 219l117 156l367 -218zM1145 1024l-180 -1024h-174l20 129q-168 -145 -377 -145q-219 0 -347 155.5t-89 374.5q39 217 221 371.5t402 154.5q203 0 325 -145l23 129h176zM473 190q135 0 245.5 94.5t133.5 229.5q23 133 -54 227.5t-212 94.5 q-133 0 -244 -94.5t-133 -227.5q-23 -135 54 -229.5t210 -94.5z" glyph-name="agrave" horiz-adv-x="1257" unicode="à"/><glyph d="M528 1143l-53 157l443 218l59 -156zM1145 1024l-180 -1024h-174l20 129q-168 -145 -377 -145q-219 0 -347 155.5t-89 374.5q39 217 221 371.5t402 154.5q203 0 325 -145l23 129h176zM473 190q135 0 245.5 94.5t133.5 229.5q23 133 -54 227.5t-212 94.5q-133 0 -244 -94.5 t-133 -227.5q-23 -135 54 -229.5t210 -94.5z" glyph-name="aacute" horiz-adv-x="1257" unicode="á"/><glyph d="M979 1139h-225l-97 143l-145 -143h-221l332 307h135zM1145 1024l-180 -1024h-174l20 129q-168 -145 -377 -145q-219 0 -347 155.5t-89 374.5q39 217 221 371.5t402 154.5q203 0 325 -145l23 129h176zM473 190q135 0 245.5 94.5t133.5 229.5q23 133 -54 227.5t-212 94.5 q-133 0 -244 -94.5t-133 -227.5q-23 -135 54 -229.5t210 -94.5z" glyph-name="acircumflex" horiz-adv-x="1257" unicode="â"/><glyph d="M430 1141l-123 94q43 57 108.5 93t127.5 36q43 0 104.5 -27.5t91.5 -27.5q61 0 127 73l133 -92q-123 -145 -270 -145q-57 0 -114.5 27.5t-77.5 27.5q-56 0 -107 -59zM1145 1024l-180 -1024h-174l20 129q-168 -145 -377 -145q-219 0 -347 155.5t-89 374.5 q39 217 221 371.5t402 154.5q203 0 325 -145l23 129h176zM473 190q135 0 245.5 94.5t133.5 229.5q23 133 -54 227.5t-212 94.5q-133 0 -244 -94.5t-133 -227.5q-23 -135 54 -229.5t210 -94.5z" glyph-name="atilde" horiz-adv-x="1257" unicode="ã"/><glyph d="M604 1231q-6 -37 -39 -64.5t-71.5 -27.5t-60 27.5t-15.5 64.5q6 39 37.5 66.5t70.5 27.5t61.5 -27.5t16.5 -66.5zM887 1231q-6 -37 -38 -64.5t-71 -27.5t-60.5 27.5t-15.5 64.5q6 39 38 66.5t71 27.5t60.5 -27.5t15.5 -66.5zM1145 1024l-180 -1024h-174l20 129 q-168 -145 -377 -145q-219 0 -347 155.5t-89 374.5q39 217 221 371.5t402 154.5q203 0 325 -145l23 129h176zM473 190q135 0 245.5 94.5t133.5 229.5q23 133 -54 227.5t-212 94.5q-133 0 -244 -94.5t-133 -227.5q-23 -135 54 -229.5t210 -94.5z" glyph-name="adieresis" horiz-adv-x="1257" unicode="ä"/><glyph d="M713 1561q88 0 138 -61.5t36 -149.5q-16 -86 -89 -148.5t-161 -62.5t-138 62.5t-34 148.5q14 88 87 149.5t161 61.5zM690 1438q-35 0 -65.5 -26t-36.5 -62.5t15.5 -61t55.5 -24.5q37 0 68 24.5t37 61t-15.5 62.5t-58.5 26zM1145 1024l-180 -1024h-174l20 129 q-168 -145 -377 -145q-219 0 -347 155.5t-89 374.5q39 217 221 371.5t402 154.5q203 0 325 -145l23 129h176zM473 190q135 0 245.5 94.5t133.5 229.5q23 133 -54 227.5t-212 94.5q-133 0 -244 -94.5t-133 -227.5q-23 -135 54 -229.5t210 -94.5z" glyph-name="aring" horiz-adv-x="1257" unicode="å"/><glyph d="M-2 514q39 217 221 371.5t402 154.5q203 0 325 -145l23 129h176l-17 -90q154 106 326 106q225 0 344 -163.5t72 -430.5h-828q8 -121 87 -192.5t192 -71.5q168 0 332 135l96 -149q-215 -184 -465 -184q-186 0 -303 120l-16 -104h-174l20 129q-168 -145 -377 -145 q-219 0 -347 155.5t-89 374.5zM1073 610h602q2 106 -69.5 179t-186.5 73q-111 0 -209 -69.5t-137 -182.5zM209 514q-23 -135 54 -229.5t210 -94.5q135 0 245.5 94.5t133.5 229.5q23 133 -54 227.5t-212 94.5q-133 0 -243.5 -94.5t-133.5 -227.5z" glyph-name="ae" horiz-adv-x="2054" unicode="æ"/><glyph d="M844 150q-166 -135 -338 -162l-10 -49q63 -25 97 -84.5t21 -130.5q-18 -94 -95 -159t-171 -65q-92 0 -147.5 62.5t-38.5 156.5h141q-6 -31 15.5 -54t54.5 -23t61.5 23.5t34.5 58t-13.5 58t-54.5 23.5h-71l30 185q-186 27 -289.5 175t-68.5 347q39 219 219 373.5 t400 154.5q217 0 352 -161l-154 -154q-90 111 -233 111q-131 0 -243 -94.5t-134.5 -227.5t55.5 -228.5t209 -95.5q143 0 272 115z" glyph-name="ccedilla" horiz-adv-x="1089" unicode="ç"/><glyph d="M725 1143l-373 219l117 156l367 -218zM1026 446h-827q8 -123 85.5 -193.5t192.5 -70.5q168 0 332 135l96 -149q-215 -184 -465 -184q-229 0 -354 160.5t-86 381.5q39 219 215 366.5t393 147.5q225 0 344 -164t74 -430zM229 610h602q0 106 -71.5 179t-184.5 73 q-111 0 -209 -69.5t-137 -182.5z" glyph-name="egrave" horiz-adv-x="1208" unicode="è"/><glyph d="M518 1143l-53 157l442 218l60 -156zM1026 446h-827q8 -123 85.5 -193.5t192.5 -70.5q168 0 332 135l96 -149q-215 -184 -465 -184q-229 0 -354 160.5t-86 381.5q39 219 215 366.5t393 147.5q225 0 344 -164t74 -430zM229 610h602q0 106 -71.5 179t-184.5 73 q-111 0 -209 -69.5t-137 -182.5z" glyph-name="eacute" horiz-adv-x="1208" unicode="é"/><glyph d="M969 1139h-228l-94 143l-147 -143h-219l331 307h136zM1026 446h-827q8 -123 85.5 -193.5t192.5 -70.5q168 0 332 135l96 -149q-215 -184 -465 -184q-229 0 -354 160.5t-86 381.5q39 219 215 366.5t393 147.5q225 0 344 -164t74 -430zM229 610h602q0 106 -71.5 179 t-184.5 73q-111 0 -209 -69.5t-137 -182.5z" glyph-name="ecircumflex" horiz-adv-x="1208" unicode="ê"/><glyph d="M592 1231q-6 -37 -38 -64.5t-71 -27.5t-60.5 27.5t-14.5 64.5q6 39 37.5 66.5t70.5 27.5t61.5 -27.5t14.5 -66.5zM877 1231q-6 -37 -38 -64.5t-71 -27.5t-61.5 27.5t-16.5 64.5q8 39 40 66.5t71 27.5t60.5 -27.5t15.5 -66.5zM1026 446h-827q8 -123 85.5 -193.5 t192.5 -70.5q168 0 332 135l96 -149q-215 -184 -465 -184q-229 0 -354 160.5t-86 381.5q39 219 215 366.5t393 147.5q225 0 344 -164t74 -430zM229 610h602q0 106 -71.5 179t-184.5 73q-111 0 -209 -69.5t-137 -182.5z" glyph-name="edieresis" horiz-adv-x="1208" unicode="ë"/><glyph d="M348 1143l-375 219l117 156l367 -218zM154 0h-205l180 1024h205z" glyph-name="igrave" horiz-adv-x="448" unicode="ì"/><glyph d="M137 1143l-53 157l442 218l60 -156zM150 0h-205l180 1024h205z" glyph-name="iacute" horiz-adv-x="446" unicode="í"/><glyph d="M608 1139h-227l-94 143l-148 -143h-219l332 307h135zM170 0h-205l180 1024h205z" glyph-name="icircumflex" horiz-adv-x="485" unicode="î"/><glyph d="M199 1231q-6 -37 -39 -64.5t-72 -27.5t-60.5 27.5t-15.5 64.5q8 39 39 66.5t70 27.5t61.5 -27.5t16.5 -66.5zM481 1231q-6 -37 -37.5 -64.5t-70.5 -27.5t-60.5 27.5t-15.5 64.5q6 39 38 66.5t70.5 27.5t61 -27.5t14.5 -66.5zM137 0h-205l181 1024h204z" glyph-name="idieresis" horiz-adv-x="419" unicode="ï"/><glyph d="M1020 745q41 -106 14 -241q-35 -211 -214 -363.5t-392 -152.5t-337 151.5t-87 364.5t214 365.5t390 152.5q20 0 62 -4l-64 151l-125 -67l-59 141l123 66l-43 104l192 103l43 -103l129 68l58 -142l-127 -67zM831.5 504q22.5 127 -51 220t-205 93t-239 -93t-130 -220 t52.5 -219t206 -92q129 0 236.5 92t130 219z" glyph-name="eth" horiz-adv-x="1222" unicode="ð"/><glyph d="M360 1141l-124 94q43 57 108.5 93t126.5 36q45 0 105.5 -27.5t93.5 -27.5q63 0 125 73l133 -92q-123 -145 -271 -145q-57 0 -112.5 27.5t-77.5 27.5q-60 0 -107 -59zM559 1040q176 0 278.5 -127t71.5 -307l-106 -606h-207l109 606q14 94 -41.5 162t-149.5 68 q-96 0 -176 -68t-94 -162l-109 -606h-205l181 1024h170l-15 -88q133 104 293 104z" glyph-name="ntilde" horiz-adv-x="1073" unicode="ñ"/><glyph d="M729 1143l-373 219l115 156l367 -218zM612 1040q219 0 347 -155.5t89.5 -372.5t-221 -372.5t-401.5 -155.5q-217 0 -345 154.5t-89 373.5t221 373.5t399 154.5zM575.5 834q-133.5 0 -244 -94.5t-132.5 -227.5q-25 -133 53 -227.5t211 -94.5t243.5 94.5t135.5 227.5 q23 133 -55 227.5t-211.5 94.5z" glyph-name="ograve" horiz-adv-x="1220" unicode="ò"/><glyph d="M522 1143l-53 157l440 218l60 -156zM612 1040q219 0 347 -155.5t89.5 -372.5t-221 -372.5t-401.5 -155.5q-217 0 -345 154.5t-89 373.5t221 373.5t399 154.5zM575.5 834q-133.5 0 -244 -94.5t-132.5 -227.5q-25 -133 53 -227.5t211 -94.5t243.5 94.5t135.5 227.5 q23 133 -55 227.5t-211.5 94.5z" glyph-name="oacute" horiz-adv-x="1220" unicode="ó"/><glyph d="M971 1139h-226l-96 143l-145 -143h-219l329 307h138zM612 1040q219 0 347 -155.5t89.5 -372.5t-221 -372.5t-401.5 -155.5q-217 0 -345 154.5t-89 373.5t221 373.5t399 154.5zM575.5 834q-133.5 0 -244 -94.5t-132.5 -227.5q-25 -133 53 -227.5t211 -94.5t243.5 94.5 t135.5 227.5q23 133 -55 227.5t-211.5 94.5z" glyph-name="ocircumflex" horiz-adv-x="1220" unicode="ô"/><glyph d="M424 1141l-125 94q43 57 108.5 93t127.5 36q45 0 105 -27.5t93 -27.5q63 0 125 73l133 -92q-123 -145 -270 -145q-57 0 -112.5 27.5t-78.5 27.5q-59 0 -106 -59zM612 1040q219 0 347 -155.5t89.5 -372.5t-221 -372.5t-401.5 -155.5q-217 0 -345 154.5t-89 373.5 t221 373.5t399 154.5zM575.5 834q-133.5 0 -244 -94.5t-132.5 -227.5q-25 -133 53 -227.5t211 -94.5t243.5 94.5t135.5 227.5q23 133 -55 227.5t-211.5 94.5z" glyph-name="otilde" horiz-adv-x="1220" unicode="õ"/><glyph d="M596 1231q-6 -37 -39 -64.5t-72 -27.5t-60.5 27.5t-14.5 64.5q8 39 39.5 66.5t70.5 27.5t60.5 -27.5t15.5 -66.5zM879 1231q-6 -37 -38 -64.5t-71 -27.5t-60.5 27.5t-15.5 64.5q6 39 38 66.5t71 27.5t61.5 -27.5t14.5 -66.5zM612 1040q219 0 347 -155.5t89.5 -372.5 t-221 -372.5t-401.5 -155.5q-217 0 -345 154.5t-89 373.5t221 373.5t399 154.5zM575.5 834q-133.5 0 -244 -94.5t-132.5 -227.5q-25 -133 53 -227.5t211 -94.5t243.5 94.5t135.5 227.5q23 133 -55 227.5t-211.5 94.5z" glyph-name="odieresis" horiz-adv-x="1220" unicode="ö"/><glyph d="M682 922q-8 -51 -50 -85t-91 -34q-51 0 -79 33.5t-20 85.5q10 49 50 83.5t92 34.5q49 0 77.5 -34.5t20.5 -83.5zM993 504h-1009l32 186h1010zM567 272q-8 -49 -50 -82.5t-91 -33.5q-51 0 -79 33.5t-19 82.5q8 51 49 86t92 35q49 0 77.5 -35t20.5 -86z" glyph-name="divide" horiz-adv-x="1148" unicode="÷"/><glyph d="M918 928q174 -158 131 -416q-39 -217 -221.5 -372.5t-401.5 -155.5q-123 0 -219 53l-29 -37l-115 76l35 43q-147 158 -106 393q39 219 221 373.5t399 154.5q100 0 191 -39l33 43l112 -77zM199 512q-23 -125 43 -213l417 522q-39 12 -84 13q-133 0 -243 -94.5t-133 -227.5 zM842 512q23 145 -66 240l-428 -539q55 -23 115 -23q133 0 243.5 94.5t135.5 227.5z" glyph-name="oslash" horiz-adv-x="1220" unicode="ø"/><glyph d="M662 1143l-373 219l114 156l367 -218zM362.5 -16q-180.5 0 -285 127t-71.5 307l107 606h204l-108 -606q-16 -94 40 -162t150.5 -68t174 68t96.5 162l106 606h207l-109 -606q-31 -180 -181 -307t-330.5 -127z" glyph-name="ugrave" horiz-adv-x="1075" unicode="ù"/><glyph d="M453 1143l-54 157l443 218l59 -156zM362.5 -16q-180.5 0 -285 127t-71.5 307l107 606h204l-108 -606q-16 -94 40 -162t150.5 -68t174 68t96.5 162l106 606h207l-109 -606q-31 -180 -181 -307t-330.5 -127z" glyph-name="uacute" horiz-adv-x="1075" unicode="ú"/><glyph d="M903 1139h-225l-96 143l-146 -143h-219l330 307h137zM362.5 -16q-180.5 0 -285 127t-71.5 307l107 606h204l-108 -606q-16 -94 40 -162t150.5 -68t174 68t96.5 162l106 606h207l-109 -606q-31 -180 -181 -307t-330.5 -127z" glyph-name="ucircumflex" horiz-adv-x="1075" unicode="û"/><glyph d="M528 1231q-6 -37 -38.5 -64.5t-71.5 -27.5t-60.5 27.5t-15.5 64.5q6 39 38 66.5t70.5 27.5t61 -27.5t16.5 -66.5zM811 1231q-6 -37 -38 -64.5t-70.5 -27.5t-60 27.5t-15.5 64.5q6 39 37.5 66.5t70.5 27.5t60.5 -27.5t15.5 -66.5zM362.5 -16q-180.5 0 -285 127t-71.5 307 l107 606h204l-108 -606q-16 -94 40 -162t150.5 -68t174 68t96.5 162l106 606h207l-109 -606q-31 -180 -181 -307t-330.5 -127z" glyph-name="udieresis" horiz-adv-x="1075" unicode="ü"/><glyph d="M467 1143l-53 157l442 218l59 -156zM1067 1024l-623 -1061q-186 -311 -503 -389l-35 184q250 68 389 326l-219 940h221l156 -668l389 668h225z" glyph-name="yacute" horiz-adv-x="1173" unicode="ý"/><glyph d="M455 -16q-186 0 -299 122l-90 -516h-205l323 1844h205l-92 -514q158 121 344 120q219 0 347 -154.5t89 -373.5t-221 -373.5t-401 -154.5zM602 831q-131 0 -242.5 -94t-134.5 -225q-23 -133 55 -227.5t209 -94.5q133 0 245 94.5t134.5 227.5t-55.5 226t-211 93z" glyph-name="thorn" horiz-adv-x="1249" unicode="þ"/><glyph d="M543 1231q-6 -37 -39 -64.5t-72 -27.5t-60.5 27.5t-15.5 64.5q6 39 38 66.5t71 27.5t61.5 -27.5t16.5 -66.5zM825 1231q-6 -37 -37.5 -64.5t-70.5 -27.5t-60.5 27.5t-15.5 64.5q6 39 38 66.5t70.5 27.5t60 -27.5t15.5 -66.5zM1067 1024l-623 -1061q-186 -311 -503 -389 l-35 184q250 68 389 326l-219 940h221l156 -668l389 668h225z" glyph-name="ydieresis" horiz-adv-x="1173" unicode="ÿ"/><glyph d="M1171 1624h-548l32 176h547zM1292 0h-225l-63 287h-697l-166 -287h-225l868 1516h166zM424 492h537l-150 675z" glyph-name="Amacron" horiz-adv-x="1558" unicode="Ā"/><glyph d="M920 1139h-547l30 176h549zM1145 1024l-180 -1024h-174l20 129q-168 -145 -377 -145q-219 0 -347 155.5t-89 374.5q39 217 221 371.5t402 154.5q203 0 325 -145l23 129h176zM473 190q135 0 245.5 94.5t133.5 229.5q23 133 -54 227.5t-212 94.5q-133 0 -244 -94.5 t-133 -227.5q-23 -135 54 -229.5t210 -94.5z" glyph-name="amacron" horiz-adv-x="1257" unicode="ā"/><glyph d="M886.5 1622q-108.5 0 -168 65.5t-42.5 155.5l12 70h148l-11 -49q-8 -43 17.5 -70t68.5 -27t77 27t42 70l8 49h146l-13 -70q-16 -90 -96 -155.5t-188.5 -65.5zM1292 0h-225l-63 287h-697l-166 -287h-225l868 1516h166zM424 492h537l-150 675z" glyph-name="Abreve" horiz-adv-x="1558" unicode="Ă"/><glyph d="M635 1137q-106 0 -165.5 65.5t-43.5 155.5l12 69h146l-9 -49q-8 -43 17.5 -69.5t69 -26.5t77 26.5t41.5 69.5l8 49h146l-12 -69q-16 -90 -97 -155.5t-190 -65.5zM1145 1024l-180 -1024h-174l20 129q-168 -145 -377 -145q-219 0 -347 155.5t-89 374.5q39 217 221 371.5 t402 154.5q203 0 325 -145l23 129h176zM473 190q135 0 245.5 94.5t133.5 229.5q23 133 -54 227.5t-212 94.5q-133 0 -244 -94.5t-133 -227.5q-23 -135 54 -229.5t210 -94.5z" glyph-name="abreve" horiz-adv-x="1257" unicode="ă"/><glyph d="M1298 -268l33 -78q-72 -31 -133 -31q-102 0 -159.5 72t-41.5 174q18 88 66 149l-59 269h-697l-166 -287h-225l868 1516h166l342 -1516h-106q-55 -66 -68 -133q-14 -82 43 -123t137 -12zM424 492h537l-150 675z" glyph-name="Aogonek" horiz-adv-x="1564" unicode="Ą"/><glyph d="M848 -133q-14 -82 42 -123t138 -12l33 -78q-72 -31 -133 -31q-102 0 -159.5 72t-41.5 174q16 86 68 151l16 109q-168 -145 -377 -145q-219 0 -347 155.5t-89 374.5q39 217 221 371.5t402 154.5q203 0 325 -145l23 129h176l-180 -1024h-50q-55 -65 -67 -133zM473 190 q135 0 245.5 94.5t133.5 229.5q23 133 -54 227.5t-212 94.5q-133 0 -244 -94.5t-133 -227.5q-23 -135 54 -229.5t210 -94.5z" glyph-name="aogonek" horiz-adv-x="1265" unicode="ą"/><glyph d="M817 1628l-53 158l440 217l60 -158zM672 -12q-319 0 -505.5 225t-131.5 545q57 317 322.5 543.5t578.5 226.5q299 0 506 -230l-150 -151q-172 176 -389 176q-231 0 -426.5 -166t-236.5 -399.5t96 -399t369 -165.5q233 0 450 174l92 -162q-272 -217 -575 -217z" glyph-name="Cacute" horiz-adv-x="1507" unicode="Ć"/><glyph d="M530 1143l-55 157l443 218l59 -156zM434 -16q-217 0 -344 154.5t-88 373.5t219 373.5t400 154.5q217 0 352 -161l-154 -154q-90 111 -233 111q-131 0 -243 -94.5t-134.5 -227.5t55.5 -228.5t209 -95.5q143 0 272 115l99 -155q-201 -166 -410 -166z" glyph-name="cacute" horiz-adv-x="1089" unicode="ć"/><glyph d="M1321 1931l-330 -307h-135l-221 307h219l94 -141l148 141h225zM672 -12q-319 0 -505.5 225t-131.5 545q57 317 322.5 543.5t578.5 226.5q299 0 506 -230l-150 -151q-172 176 -389 176q-231 0 -426.5 -166t-236.5 -399.5t96 -399t369 -165.5q233 0 450 174l92 -162 q-272 -217 -575 -217z" glyph-name="Ccaron" horiz-adv-x="1507" unicode="Č"/><glyph d="M1036 1446l-331 -307h-136l-221 307h219l95 -141l147 141h227zM434 -16q-217 0 -344 154.5t-88 373.5t219 373.5t400 154.5q217 0 352 -161l-154 -154q-90 111 -233 111q-131 0 -243 -94.5t-134.5 -227.5t55.5 -228.5t209 -95.5q143 0 272 115l99 -155 q-201 -166 -410 -166z" glyph-name="ccaron" horiz-adv-x="1089" unicode="č"/><glyph d="M920 1624h-547l30 176h547zM782 207l-34 -207h-805l266 1516h805l-37 -207h-598l-80 -459h557l-31 -182h-559l-82 -461h598z" glyph-name="Emacron" horiz-adv-x="1028" unicode="Ē"/><glyph d="M909 1139h-547l31 176h547zM1026 446h-827q8 -123 85.5 -193.5t192.5 -70.5q168 0 332 135l96 -149q-215 -184 -465 -184q-229 0 -354 160.5t-86 381.5q39 219 215 366.5t393 147.5q225 0 344 -164t74 -430zM229 610h602q0 106 -71.5 179t-184.5 73q-111 0 -209 -69.5 t-137 -182.5z" glyph-name="emacron" horiz-adv-x="1208" unicode="ē"/><glyph d="M741 1716q-8 -37 -39.5 -64.5t-70.5 -27.5t-61.5 27.5t-14.5 64.5q6 39 38 66.5t70.5 27.5t61 -27.5t16.5 -66.5zM782 207l-34 -207h-805l266 1516h805l-37 -207h-598l-80 -459h557l-31 -182h-559l-82 -461h598z" glyph-name="Edotaccent" horiz-adv-x="1028" unicode="Ė"/><glyph d="M731 1231q-6 -37 -39 -64.5t-71.5 -27.5t-60 27.5t-15.5 64.5q6 39 37.5 66.5t70.5 27.5t61.5 -27.5t16.5 -66.5zM1026 446h-827q8 -123 85.5 -193.5t192.5 -70.5q168 0 332 135l96 -149q-215 -184 -465 -184q-229 0 -354 160.5t-86 381.5q39 219 215 366.5t393 147.5 q225 0 344 -164t74 -430zM229 610h602q0 106 -71.5 179t-184.5 73q-111 0 -209 -69.5t-137 -182.5z" glyph-name="edotaccent" horiz-adv-x="1208" unicode="ė"/><glyph d="M977 1309h-598l-80 -459h557l-31 -182h-559l-82 -461h598l-34 -207h-31q-55 -66 -68 -133q-14 -82 43.5 -123t136.5 -12l33 -78q-72 -31 -133 -31q-102 0 -159.5 72t-41.5 174q14 74 54 131h-639l266 1516h805z" glyph-name="Eogonek" horiz-adv-x="1038" unicode="Ę"/><glyph d="M608 1040q225 0 344 -163.5t74 -430.5h-827q8 -123 85.5 -193.5t192.5 -70.5q168 0 332 135l96 -149q-156 -133 -344 -172q-55 -66 -63 -129q-14 -82 42 -123t138 -12l33 -78q-74 -31 -136 -31q-102 0 -159.5 72t-38.5 174q10 63 41 115q-219 8 -337 167.5t-81 374.5 q39 219 215 366.5t393 147.5zM229 610h602q0 106 -71.5 179t-184.5 73q-111 0 -209 -69.5t-137 -182.5z" glyph-name="eogonek" horiz-adv-x="1208" unicode="ę"/><glyph d="M1034 1931l-329 -307h-138l-221 307h221l95 -141l145 141h227zM782 207l-34 -207h-805l266 1516h805l-37 -207h-598l-80 -459h557l-31 -182h-559l-82 -461h598z" glyph-name="Ecaron" horiz-adv-x="1028" unicode="Ě"/><glyph d="M1024 1446l-332 -307h-135l-221 307h221l94 -141l148 141h225zM1026 446h-827q8 -123 85.5 -193.5t192.5 -70.5q168 0 332 135l96 -149q-215 -184 -465 -184q-229 0 -354 160.5t-86 381.5q39 219 215 366.5t393 147.5q225 0 344 -164t74 -430zM229 610h602 q0 106 -71.5 179t-184.5 73q-111 0 -209 -69.5t-137 -182.5z" glyph-name="ecaron" horiz-adv-x="1208" unicode="ě"/><glyph d="M610 1614h-547l31 176h547zM-57 0l266 1516h203l-267 -1516h-202z" glyph-name="Imacron" horiz-adv-x="438" unicode="Ī"/><glyph d="M516 1139h-549l33 176h547zM137 0h-205l181 1024h204z" glyph-name="imacron" horiz-adv-x="419" unicode="ī"/><glyph d="M55 -133q-14 -82 43.5 -123t137.5 -12l32 -78q-72 -31 -133 -31q-102 0 -159.5 72t-41.5 174q14 74 54 131h-45l266 1516h203l-267 -1516h-22q-56 -65 -68 -133z" glyph-name="Iogonek" horiz-adv-x="448" unicode="Į"/><glyph d="M260 1325q39 0 61.5 -27.5t14.5 -66.5q-6 -37 -38 -64.5t-71 -27.5t-61.5 27.5t-15.5 64.5q8 39 39.5 66.5t70.5 27.5zM57 0q-57 -68 -65 -133q-14 -82 42 -123t138 -12l33 -78q-74 -31 -133 -31q-104 0 -161.5 72t-39.5 174q12 78 66 151l176 1004h204l-180 -1024h-80z " glyph-name="iogonek" horiz-adv-x="430" unicode="į"/><glyph d="M131 0h-205l180 1024h205z" glyph-name="dotlessi" horiz-adv-x="405" unicode="ı"/><glyph d="M332 1634l-53 158l440 217l61 -158zM711 0h-768l266 1516h207l-232 -1309h564z" glyph-name="Lacute" horiz-adv-x="962" unicode="Ĺ"/><glyph d="M291 1561l-53 157l442 217l59 -157zM369 207l-35 -207h-58q-332 0 -268 348l191 1086h207l-191 -1086q-12 -70 16.5 -105.5t83.5 -35.5h54z" glyph-name="lacute" horiz-adv-x="593" unicode="ĺ"/><glyph d="M342 639l-76 -432h563l-36 -207h-768l92 524l-90 -45l39 213l88 45l137 779h207l-117 -664l479 242l-39 -215z" glyph-name="Lslash" horiz-adv-x="1044" unicode="Ł"/><glyph d="M334 639l-49 -279q-14 -72 12.5 -112.5t85.5 -40.5h49l-37 -207h-51q-330 0 -266 360l28 164l-90 -45l39 213l88 45l123 697h207l-102 -582l186 94l-39 -215z" glyph-name="lslash" horiz-adv-x="632" unicode="ł"/><glyph d="M676 1628l-53 158l440 217l59 -158zM1161 1516h207l-266 -1516h-160l-594 1133l-198 -1133h-207l266 1516h158l596 -1135z" glyph-name="Nacute" horiz-adv-x="1394" unicode="Ń"/><glyph d="M459 1143l-53 157l440 218l59 -156zM559 1040q176 0 278.5 -127t71.5 -307l-106 -606h-207l109 606q14 94 -41.5 162t-149.5 68q-96 0 -176 -68t-94 -162l-109 -606h-205l181 1024h170l-15 -88q133 104 293 104z" glyph-name="nacute" horiz-adv-x="1073" unicode="ń"/><glyph d="M1180 1931l-330 -307h-135l-221 307h219l94 -141l147 141h226zM1161 1516h207l-266 -1516h-160l-594 1133l-198 -1133h-207l266 1516h158l596 -1135z" glyph-name="Ncaron" horiz-adv-x="1394" unicode="Ň"/><glyph d="M965 1446l-332 -307h-135l-222 307h222l92 -141l147 141h228zM559 1040q176 0 278.5 -127t71.5 -307l-106 -606h-207l109 606q14 94 -41.5 162t-149.5 68q-96 0 -176 -68t-94 -162l-109 -606h-205l181 1024h170l-15 -88q133 104 293 104z" glyph-name="ncaron" horiz-adv-x="1073" unicode="ň"/><glyph d="M1247 1624h-547l31 176h547zM952 1530q319 0 506 -226.5t129 -543.5q-57 -319 -322.5 -545.5t-582.5 -226.5q-319 0 -505.5 226t-131.5 546q57 317 323.5 543.5t583.5 226.5zM915 1323q-233 0 -427.5 -165t-235.5 -398q-41 -236 94 -401.5t371 -165.5q231 0 426.5 166.5 t236.5 400.5q41 231 -96.5 397t-368.5 166z" glyph-name="Omacron" horiz-adv-x="1724" unicode="Ō"/><glyph d="M913 1139h-546l30 176h547zM612 1040q219 0 347 -155.5t89.5 -372.5t-221 -372.5t-401.5 -155.5q-217 0 -345 154.5t-89 373.5t221 373.5t399 154.5zM575.5 834q-133.5 0 -244 -94.5t-132.5 -227.5q-25 -133 53 -227.5t211 -94.5t243.5 94.5t135.5 227.5 q23 133 -55 227.5t-211.5 94.5z" glyph-name="omacron" horiz-adv-x="1220" unicode="ō"/><glyph d="M817 1589l-102 115l366 342l107 -113zM1108 1589l-102 115l366 342l107 -113zM952 1530q319 0 506 -226.5t129 -543.5q-57 -319 -322.5 -545.5t-582.5 -226.5q-319 0 -505.5 226t-131.5 546q57 317 323.5 543.5t583.5 226.5zM915 1323q-233 0 -427.5 -165t-235.5 -398 q-41 -236 94 -401.5t371 -165.5q231 0 426.5 166.5t236.5 400.5q41 231 -96.5 397t-368.5 166z" glyph-name="Ohungarumlaut" horiz-adv-x="1724" unicode="Ő"/><glyph d="M483 1104l-102 115l367 342l104 -113zM774 1104l-102 115l366 342l107 -113zM612 1040q219 0 347 -155.5t89.5 -372.5t-221 -372.5t-401.5 -155.5q-217 0 -345 154.5t-89 373.5t221 373.5t399 154.5zM575.5 834q-133.5 0 -244 -94.5t-132.5 -227.5q-25 -133 53 -227.5 t211 -94.5t243.5 94.5t135.5 227.5q23 133 -55 227.5t-211.5 94.5z" glyph-name="ohungarumlaut" horiz-adv-x="1220" unicode="ő"/><glyph d="M2050 207l-37 -207h-766l43 244q-123 -121 -283.5 -190.5t-328.5 -69.5q-319 0 -504.5 225t-128.5 545q55 319 320.5 545.5t584.5 226.5q166 0 301 -70t219 -190l43 250h766l-34 -205h-564l-79 -463h524l-33 -180h-522l-84 -461h563zM1380 754q41 236 -94 400.5 t-371 164.5q-233 0 -427.5 -166t-235.5 -399q-43 -236 92 -401t371 -165q233 0 428.5 166.5t236.5 399.5z" glyph-name="OE" horiz-adv-x="2295" unicode="Œ"/><glyph d="M-8 512q39 219 221 373.5t399 154.5q127 0 226.5 -56t152.5 -155q188 211 453 211q225 0 344 -163.5t74 -430.5h-828q8 -121 87 -192.5t192 -71.5q168 0 332 135l96 -149q-215 -184 -465 -184q-133 0 -233.5 58t-153.5 161q-90 -100 -212 -159.5t-251 -59.5 q-217 0 -345 154.5t-89 373.5zM1065 610h602q0 106 -71.5 179t-184.5 73q-111 0 -209 -69.5t-137 -182.5zM199 512q-25 -133 53 -227.5t211 -94.5t243.5 94.5t135.5 227.5q23 133 -55 227.5t-211.5 94.5t-243.5 -94.5t-133 -227.5z" glyph-name="oe" horiz-adv-x="2043" unicode="œ"/><glyph d="M920 1835l-451 -217l-53 158l442 217zM1026 1075q-27 -152 -138.5 -269.5t-260.5 -156.5l272 -649h-235l-254 633h-152l-111 -633h-206l266 1516h455q182 0 289.5 -129.5t74.5 -311.5zM821 1075q16 96 -41 165t-153 69h-250l-82 -469h248q98 0 179 68.5t99 166.5z" glyph-name="Racute" horiz-adv-x="1146" unicode="Ŕ"/><glyph d="M264 1137l-53 157l440 217l62 -157zM664 1024l-35 -197h-117q-98 0 -174 -58t-92 -153l-109 -616h-205l181 1024h170l-17 -86q98 86 258 86h140z" glyph-name="racute" horiz-adv-x="727" unicode="ŕ"/><glyph d="M645 1614h-135l-223 307h221l94 -141l146 141h227zM1026 1075q-27 -152 -138.5 -269.5t-260.5 -156.5l272 -649h-235l-254 633h-152l-111 -633h-206l266 1516h455q182 0 289.5 -129.5t74.5 -311.5zM821 1075q16 96 -41 165t-153 69h-250l-82 -469h248q98 0 179 68.5 t99 166.5z" glyph-name="Rcaron" horiz-adv-x="1146" unicode="Ř"/><glyph d="M803 1440l-332 -307h-135l-221 307h219l94 -142l147 142h228zM694 1024l-35 -197h-114q-98 0 -174 -58t-92 -153l-109 -616h-205l180 1024h168l-14 -86q98 86 256 86h139z" glyph-name="rcaron" horiz-adv-x="784" unicode="ř"/><glyph d="M506 1628l-53 158l440 217l61 -158zM356 -16q-223 0 -407 184l141 182q156 -143 297 -143q94 0 168 58.5t90 142.5q16 94 -61 170q-47 45 -211 135q-137 76 -209 171t-37 246q39 178 187.5 290t328.5 108q168 -2 295 -107l-135 -159q-102 74 -203 73q-92 0 -169 -60.5 t-93 -150.5q-8 -45 3 -79.5t49 -65.5t63.5 -46t87.5 -46q68 -33 117 -64.5t111 -91t88 -142.5t9 -183q-31 -178 -176.5 -300t-333.5 -122z" glyph-name="Sacute" horiz-adv-x="1060" unicode="Ś"/><glyph d="M346 1143l-55 157l442 218l60 -156zM717 950l-117 -149q-98 68 -186 67q-61 0 -109.5 -28.5t-56.5 -73.5q-6 -33 17.5 -58.5t50 -38t90.5 -36.5q125 -47 195.5 -132t49.5 -204q-23 -131 -139.5 -222t-269.5 -91q-170 0 -320 104l111 170q115 -78 237 -78q72 0 116 36 t54 85q8 49 -31.5 85t-146.5 79q-51 23 -80.5 39t-71.5 51t-58.5 86t-4.5 115q20 127 131 205.5t258 78.5q144 0 281 -90z" glyph-name="sacute" horiz-adv-x="854" unicode="ś"/><glyph d="M541 887q68 -33 117 -64.5t111 -91t88 -142.5t9 -183q-29 -160 -148.5 -276t-283.5 -140l-10 -51q63 -25 97 -84.5t20 -130.5q-16 -94 -94 -159t-173 -65q-92 0 -147 62.5t-37 156.5h141q-6 -31 14.5 -54t53.5 -23q35 0 63.5 23.5t34.5 58.5q6 33 -13 57t-54 24h-74 l33 183q-184 25 -340 180l141 182q156 -143 297 -143q94 0 168 58.5t90 142.5q12 68 -29 126t-80.5 84.5t-138.5 79.5l-24 15q-137 76 -209 171t-37 246q39 178 187.5 290t328.5 108q168 -2 295 -107l-135 -159q-102 74 -203 73q-92 0 -169 -60.5t-93 -150.5q-8 -45 3 -79.5 t49 -65.5t64 -46t87 -46z" glyph-name="Scedilla" horiz-adv-x="1060" unicode="Ş"/><glyph d="M406 633q125 -47 195.5 -132t49.5 -204q-20 -111 -108 -195t-213 -110l-11 -53q63 -25 97.5 -84.5t19.5 -130.5q-16 -94 -94 -159t-172 -65q-92 0 -147.5 62.5t-36.5 156.5h141q-6 -31 14.5 -54t53.5 -23q35 0 63.5 23.5t34.5 58t-14.5 58t-55.5 23.5h-71l32 183 q-145 16 -262 100l111 170q115 -78 237 -78q72 0 116 36t54 85q8 49 -31.5 85t-146.5 79q-51 23 -80.5 39t-71.5 51t-58.5 86t-4.5 115q20 127 131 205.5t258 78.5q143 0 281 -90l-117 -149q-98 68 -186 67q-61 0 -109.5 -28.5t-56.5 -73.5q-6 -33 17.5 -58.5t50.5 -37.5 t90 -37z" glyph-name="scedilla" horiz-adv-x="854" unicode="ş"/><glyph d="M1012 1931l-332 -307h-135l-221 307h219l96 -141l145 141h228zM356 -16q-223 0 -407 184l141 182q156 -143 297 -143q94 0 168 58.5t90 142.5q16 94 -61 170q-47 45 -211 135q-137 76 -209 171t-37 246q39 178 187.5 290t328.5 108q168 -2 295 -107l-135 -159 q-102 74 -203 73q-92 0 -169 -60.5t-93 -150.5q-8 -45 3 -79.5t49 -65.5t63.5 -46t87.5 -46q68 -33 117 -64.5t111 -91t88 -142.5t9 -183q-31 -178 -176.5 -300t-333.5 -122z" glyph-name="Scaron" horiz-adv-x="1060" unicode="Š"/><glyph d="M852 1446l-332 -307h-135l-221 307h219l94 -141l148 141h227zM717 950l-117 -149q-98 68 -186 67q-61 0 -109.5 -28.5t-56.5 -73.5q-6 -33 17.5 -58.5t50 -38t90.5 -36.5q125 -47 195.5 -132t49.5 -204q-23 -131 -139.5 -222t-269.5 -91q-170 0 -320 104l111 170 q115 -78 237 -78q72 0 116 36t54 85q8 49 -31.5 85t-146.5 79q-51 23 -80.5 39t-71.5 51t-58.5 86t-4.5 115q20 127 131 205.5t258 78.5q144 0 281 -90z" glyph-name="scaron" horiz-adv-x="854" unicode="š"/><glyph d="M158 1516h919l-35 -207h-358l-229 -1309h-33l-12 -61q63 -25 97 -84.5t19 -130.5q-16 -94 -94 -159t-172 -65q-92 0 -146.5 62.5t-37.5 156.5h141q-6 -31 14.5 -54t53.5 -23q35 0 63.5 23.5t34.5 58t-13.5 58t-54.5 23.5h-71l32 195h-28l231 1309h-358z" glyph-name="Tcommaaccent" horiz-adv-x="1052" unicode="Ţ"/><glyph d="M287 844l-84 -479q-10 -66 26.5 -112t102.5 -46h174l-35 -207h-156l-12 -61q63 -25 96 -83.5t21 -131.5q-16 -94 -94 -159t-172 -65q-92 0 -147.5 62.5t-39.5 156.5h142q-6 -31 15 -54t54 -23t61.5 23.5t36.5 58.5q4 35 -15 58t-54 23h-72l37 211q-104 35 -151.5 126 t-22.5 225l172 983h207l-58 -326h336l-32 -180h-336z" glyph-name="tcommaaccent" horiz-adv-x="716" unicode="ţ"/><glyph d="M989 1624h-547l31 176h547zM419.5 -12q-198.5 0 -314 140t-80.5 339l184 1049h205l-185 -1049q-18 -113 48.5 -192.5t179 -79.5t208 79.5t115.5 192.5l185 1049h204l-184 -1049q-35 -199 -201 -339t-364.5 -140z" glyph-name="Umacron" horiz-adv-x="1196" unicode="Ū"/><glyph d="M846 1139h-549l31 176h549zM362.5 -16q-180.5 0 -285 127t-71.5 307l107 606h204l-108 -606q-16 -94 40 -162t150.5 -68t174 68t96.5 162l106 606h207l-109 -606q-31 -180 -181 -307t-330.5 -127z" glyph-name="umacron" horiz-adv-x="1075" unicode="ū"/><glyph d="M782 2046q88 0 138.5 -61.5t33.5 -149.5q-16 -86 -87.5 -148.5t-160 -62.5t-139.5 62.5t-35 148.5q14 88 88 149.5t162 61.5zM760 1923q-37 0 -67.5 -25.5t-37 -62.5t15 -61.5t58.5 -24.5t67.5 24.5t34.5 61.5q8 37 -13 62.5t-58 25.5zM419.5 -12q-198.5 0 -314 140 t-80.5 339l184 1049h205l-185 -1049q-18 -113 48.5 -192.5t179 -79.5t208 79.5t115.5 192.5l185 1049h204l-184 -1049q-35 -199 -201 -339t-364.5 -140z" glyph-name="Uring" horiz-adv-x="1196" unicode="Ů"/><glyph d="M637 1561q88 0 138 -61.5t36 -149.5q-16 -86 -89 -148.5t-161 -62.5q-86 0 -137 62.5t-35 148.5q16 88 88 149.5t160 61.5zM614 1438q-35 0 -65.5 -26t-36.5 -62.5t15.5 -61t56.5 -24.5q37 0 67.5 24.5t36.5 61t-15.5 62.5t-58.5 26zM362.5 -16q-180.5 0 -285 127 t-71.5 307l107 606h204l-108 -606q-16 -94 40 -162t150.5 -68t174 68t96.5 162l106 606h207l-109 -606q-31 -180 -181 -307t-330.5 -127z" glyph-name="uring" horiz-adv-x="1075" unicode="ů"/><glyph d="M559 1589l-102 115l366 342l107 -113zM852 1589l-104 115l366 342l107 -113zM419.5 -12q-198.5 0 -314 140t-80.5 339l184 1049h205l-185 -1049q-18 -113 48.5 -192.5t179 -79.5t208 79.5t115.5 192.5l185 1049h204l-184 -1049q-35 -199 -201 -339t-364.5 -140z" glyph-name="Uhungarumlaut" horiz-adv-x="1196" unicode="Ű"/><glyph d="M416 1104l-105 115l367 342l106 -113zM707 1104l-103 115l367 342l106 -113zM362.5 -16q-180.5 0 -285 127t-71.5 307l107 606h204l-108 -606q-16 -94 40 -162t150.5 -68t174 68t96.5 162l106 606h207l-109 -606q-31 -180 -181 -307t-330.5 -127z" glyph-name="uhungarumlaut" horiz-adv-x="1075" unicode="ű"/><glyph d="M965 1516h204l-184 -1049q-27 -156 -139.5 -280t-263.5 -173q-63 -74 -78 -147q-14 -82 43 -123t137 -12l33 -78q-72 -31 -133 -31q-102 0 -159.5 72t-41.5 174q14 70 45 119h-8q-199 0 -314.5 140t-80.5 339l184 1049h205l-185 -1049q-18 -113 48.5 -192.5t179 -79.5 t208 79.5t115.5 192.5z" glyph-name="Uogonek" horiz-adv-x="1196" unicode="Ų"/><glyph d="M776 1024h207l-109 -606q-23 -133 -114.5 -241.5t-220.5 -158.5q-68 -80 -82 -151q-14 -82 43 -123t137 -12l33 -78q-72 -31 -133 -31q-102 0 -160 72t-41 174q14 61 43 115h-17q-180 0 -284.5 127t-71.5 307l107 606h204l-108 -606q-16 -94 40 -162t150.5 -68t174 68 t96.5 162z" glyph-name="uogonek" horiz-adv-x="1075" unicode="ų"/><glyph d="M1407 1624h-225l-97 143l-145 -143h-219l330 307h135zM1915 1516l-690 -1516h-164l-94 1065l-469 -1065h-162l-158 1516h219l113 -1070l467 1055h137l90 -1055l490 1070h221z" glyph-name="Wcircumflex" horiz-adv-x="1910" unicode="Ŵ"/><glyph d="M1233 1139h-227l-95 143l-145 -143h-221l332 307h135zM805 989h123l137 -667l385 702h217l-577 -1024h-142l-137 676l-375 -676h-141l-219 1024h219l137 -702z" glyph-name="wcircumflex" horiz-adv-x="1738" unicode="ŵ"/><glyph d="M1120 1624h-225l-96 143l-146 -143h-219l330 307h135zM1341 1516l-614 -811l-125 -705h-203l123 705l-329 811h247l226 -564l426 564h249z" glyph-name="Ycircumflex" horiz-adv-x="1351" unicode="Ŷ"/><glyph d="M918 1139h-226l-96 143l-145 -143h-222l332 307h135zM1067 1024l-623 -1061q-186 -311 -503 -389l-35 184q250 68 389 326l-219 940h221l156 -668l389 668h225z" glyph-name="ycircumflex" horiz-adv-x="1173" unicode="ŷ"/><glyph d="M745 1716q-6 -37 -38.5 -64.5t-71.5 -27.5t-60.5 27.5t-15.5 64.5q6 39 38 66.5t71 27.5t61 -27.5t16 -66.5zM1028 1716q-6 -37 -38 -64.5t-70.5 -27.5t-60 27.5t-15.5 64.5q6 39 37.5 66.5t70.5 27.5t60.5 -27.5t15.5 -66.5zM1341 1516l-614 -811l-125 -705h-203 l123 705l-329 811h247l226 -564l426 564h249z" glyph-name="Ydieresis" horiz-adv-x="1351" unicode="Ÿ"/><glyph d="M600 1634l-53 158l440 217l62 -158zM1040 207l-34 -207h-1067l34 207l981 1116h-819l33 193h1075l-33 -185l-985 -1124h815z" glyph-name="Zacute" horiz-adv-x="1257" unicode="Ź"/><glyph d="M391 1143l-53 157l442 218l60 -156zM768 205l-35 -205h-825l35 205l680 637h-574l33 182h811l-33 -184l-665 -635h573z" glyph-name="zacute" horiz-adv-x="985" unicode="ź"/><glyph d="M811 1722q-6 -39 -38 -65.5t-70.5 -26.5t-60 26.5t-15.5 65.5t37.5 67t70.5 28t61.5 -28t14.5 -67zM1040 207l-34 -207h-1067l34 207l981 1116h-819l33 193h1075l-33 -185l-985 -1124h815z" glyph-name="Zdotaccent" horiz-adv-x="1257" unicode="Ż"/><glyph d="M604 1231q-6 -37 -39 -64.5t-71.5 -27.5t-60 27.5t-15.5 64.5q6 39 37.5 66.5t70.5 27.5t61.5 -27.5t16.5 -66.5zM768 205l-35 -205h-825l35 205l680 637h-574l33 182h811l-33 -184l-665 -635h573z" glyph-name="zdotaccent" horiz-adv-x="985" unicode="ż"/><glyph d="M1106 1937l-332 -307h-135l-221 307h221l94 -141l148 141h225zM1040 207l-34 -207h-1067l34 207l981 1116h-819l33 193h1075l-33 -185l-985 -1124h815z" glyph-name="Zcaron" horiz-adv-x="1257" unicode="Ž"/><glyph d="M897 1446l-330 -307h-137l-219 307h219l94 -141l148 141h225zM768 205l-35 -205h-825l35 205l680 637h-574l33 182h811l-33 -184l-665 -635h573z" glyph-name="zcaron" horiz-adv-x="985" unicode="ž"/><glyph d="M709 1229q-66 0 -121.5 -48t-67.5 -116l-39 -219h322l-29 -166h-321l-136 -756q-25 -147 -139.5 -240.5t-251.5 -93.5h-102l35 207h102q53 0 97 37t55 90l202 1141q31 170 152 269.5t278 99.5h162l-37 -205h-161z" glyph-name="florin" horiz-adv-x="901" unicode="ƒ"/><glyph d="M287 53q-61 -336 -396 -479l-75 174q229 115 264 305l172 971h205z" glyph-name="uni0237" horiz-adv-x="563" unicode="ȷ"/><glyph d="M797 1167h-226l-96 142l-145 -142h-219l329 308h138z" glyph-name="circumflex" horiz-adv-x="858" unicode="ˆ"/><glyph d="M852 1475l-330 -308h-137l-219 308h219l94 -142l148 142h225z" glyph-name="caron" horiz-adv-x="858" unicode="ˇ"/><glyph d="M358 1165q-109 0 -167 65.5t-41 155.5l12 70h145l-8 -49q-8 -43 17.5 -69.5t68.5 -26.5t76 26.5t41 69.5l8 49h147l-12 -70q-18 -90 -99.5 -155.5t-187.5 -65.5z" glyph-name="breve" horiz-adv-x="665" unicode="˘"/><glyph d="M311 1260q-6 -39 -37.5 -66t-70.5 -27t-60.5 27t-15.5 66q8 39 39 66.5t69.5 27.5t61 -27.5t14.5 -66.5z" glyph-name="dotaccent" horiz-adv-x="356" unicode="˙"/><glyph d="M395 1589q88 0 139.5 -61.5t36.5 -149.5q-16 -88 -88.5 -149.5t-161 -61.5t-138.5 61.5t-35.5 149.5t88 149.5t159.5 61.5zM375 1466q-37 0 -66.5 -25.5t-36.5 -62.5q-8 -37 13.5 -62.5t56.5 -25.5q37 0 67.5 25.5t39.5 62.5q6 37 -16.5 62.5t-57.5 25.5z" glyph-name="ring" horiz-adv-x="591" unicode="˚"/><glyph d="M80 -389q-102 0 -159.5 71.5t-41.5 174.5q18 90 72 157h139q-78 -78 -92 -159.5t43 -122.5t139 -13l33 -77q-70 -31 -133 -31z" glyph-name="ogonek" horiz-adv-x="540" unicode="˛"/><glyph d="M254 1169l-127 95q43 57 109.5 93t128.5 36q43 0 103 -28t93 -28q63 0 125 74l133 -94q-123 -143 -270 -143q-57 0 -112.5 26.5t-78.5 26.5q-61 -1 -104 -58z" glyph-name="tilde" horiz-adv-x="854" unicode="˜"/><glyph d="M233 1130l-102 115l367 344l106 -112zM526 1130l-104 115l366 344l107 -112z" glyph-name="hungarumlaut" horiz-adv-x="786" unicode="˝"/><glyph d="M-139 1171l-373 218l115 157l366 -217z" glyph-name="gravecomb" unicode="̀"/><glyph d="M-346 1171l-53 158l442 217l59 -157z" glyph-name="acutecomb" unicode="́"/><glyph d="M-61 1167h-226l-96 142l-145 -142h-220l330 308h137z" glyph-name="uni0302" unicode="̂"/><glyph d="M-600 1169l-127 95q43 57 109.5 93t128.5 36q43 0 103 -28t93 -28q63 0 125 74l133 -94q-123 -143 -270 -143q-57 0 -112.5 26.5t-78.5 26.5q-61 -1 -104 -58z" glyph-name="tildecomb" unicode="̃"/><glyph d="M-61 1167h-547l30 176h549z" glyph-name="uni0304" unicode="̄"/><glyph d="M-307 1165q-109 0 -167 65.5t-42 155.5l12 70h146l-9 -49q-8 -43 17.5 -69.5t68.5 -26.5t76 26.5t41 69.5l8 49h148l-12 -70q-18 -90 -99.5 -155.5t-187.5 -65.5z" glyph-name="uni0306" unicode="̆"/><glyph d="M-45 1260q-6 -39 -38 -66t-71 -27t-60.5 27t-14.5 66q8 39 38.5 66.5t69.5 27.5t61.5 -27.5t14.5 -66.5z" glyph-name="uni0307" unicode="̇"/><glyph d="M-328 1260q-6 -39 -37.5 -66t-70.5 -27t-60.5 27t-15.5 66q8 39 39 66.5t69.5 27.5t61 -27.5t14.5 -66.5zM-43 1260q-6 -39 -38 -66t-70.5 -27t-60 27t-15.5 66q8 39 38.5 66.5t69.5 27.5t61.5 -27.5t14.5 -66.5z" glyph-name="uni0308" unicode="̈"/><glyph d="M-197 1589q88 0 139.5 -61.5t37.5 -149.5q-16 -88 -89 -149.5t-161 -61.5t-138.5 61.5t-36 149.5t88 149.5t159.5 61.5zM-217 1466q-37 0 -66.5 -25.5t-35.5 -62.5q-8 -37 13 -62.5t56 -25.5q37 0 67.5 25.5t39.5 62.5q6 37 -16.5 62.5t-57.5 25.5z" glyph-name="uni030A" unicode="̊"/><glyph d="M-553 1130l-102 115l366 344l107 -112zM-260 1130l-105 115l367 344l107 -112z" glyph-name="uni030B" unicode="̋"/><glyph d="M-6 1475l-330 -308h-137l-219 308h219l94 -142l148 142h225z" glyph-name="uni030C" unicode="̌"/><glyph d="M-580 -500q-92 0 -147 62.5t-37 156.5h139q-6 -31 15.5 -54t54.5 -23q35 0 63.5 23.5t34.5 58t-14.5 58t-54.5 23.5h-72l39 220h145l-16 -86q63 -25 96 -83.5t21 -131.5q-16 -94 -94.5 -159t-172.5 -65z" glyph-name="uni0327" unicode="̧"/><glyph d="M-461 -389q-102 0 -159.5 71.5t-41.5 174.5q18 90 72 157h139q-78 -78 -92 -159.5t43.5 -122.5t139.5 -13l32 -77q-70 -31 -133 -31z" glyph-name="uni0328" unicode="̨"/><glyph d="M-182 477h-547l31 176h546z" glyph-name="uni0335" unicode="̵"/><glyph d="M-1014 0l852 1516h182l-854 -1516h-180z" glyph-name="uni0338" unicode="̸"/><glyph d="M834 0l231 1311h-705l-229 -1311h-205l267 1516h1114l-267 -1516h-206z" glyph-name="Pi" horiz-adv-x="1314" unicode="Π"/><glyph d="M1667 195l-33 -195h-624l34 197q162 76 274 222t140 316q45 246 -88 420t-364 174q-233 0 -428 -174t-238 -420q-31 -174 30.5 -319.5t194.5 -218.5l-35 -197h-624l33 195h305q-166 225 -111 540q57 330 323.5 564.5t584 234.5t499.5 -234.5t125 -564.5 q-55 -315 -303 -540h305z" glyph-name="Omega" horiz-adv-x="1900" unicode="Ω"/><glyph d="M772 1024h205l-107 -606q-33 -180 -182 -308t-330 -128q-133 0 -217 79l-84 -471h-202l251 1434h203l-106 -606q-16 -94 40 -162t152.5 -68t176 68t94.5 162z" glyph-name="mu" horiz-adv-x="1052" unicode="μ"/><glyph d="M1081 205h95l-35 -205h-94q-139 0 -220.5 98.5t-58.5 237.5l86 483h-336l-332 -819h-211l332 819h-237l36 205h988l-121 -688q-10 -55 21.5 -93t86.5 -38z" glyph-name="pi" horiz-adv-x="1394" unicode="π"/><glyph d="M1165 1628l-372 217l114 158l367 -217zM1915 1516l-690 -1516h-164l-94 1065l-469 -1065h-162l-158 1516h219l113 -1070l467 1055h137l90 -1055l490 1070h221z" glyph-name="Wgrave" horiz-adv-x="1910" unicode="Ẁ"/><glyph d="M989 1143l-373 219l117 156l367 -218zM805 989h123l137 -667l385 702h217l-577 -1024h-142l-137 676l-375 -676h-141l-219 1024h219l137 -702z" glyph-name="wgrave" horiz-adv-x="1738" unicode="ẁ"/><glyph d="M956 1628l-53 158l443 217l59 -158zM1915 1516l-690 -1516h-164l-94 1065l-469 -1065h-162l-158 1516h219l113 -1070l467 1055h137l90 -1055l490 1070h221z" glyph-name="Wacute" horiz-adv-x="1910" unicode="Ẃ"/><glyph d="M782 1143l-53 157l442 218l60 -156zM805 989h123l137 -667l385 702h217l-577 -1024h-142l-137 676l-375 -676h-141l-219 1024h219l137 -702z" glyph-name="wacute" horiz-adv-x="1738" unicode="ẃ"/><glyph d="M1032 1716q-6 -37 -38.5 -64.5t-71.5 -27.5t-60.5 27.5t-15.5 64.5q6 39 37.5 66.5t70.5 27.5t61.5 -27.5t16.5 -66.5zM1315 1716q-6 -37 -38 -64.5t-71 -27.5t-60.5 27.5t-15.5 64.5q6 39 38 66.5t71 27.5t60.5 -27.5t15.5 -66.5zM1915 1516l-690 -1516h-164l-94 1065 l-469 -1065h-162l-158 1516h219l113 -1070l467 1055h137l90 -1055l490 1070h221z" glyph-name="Wdieresis" horiz-adv-x="1910" unicode="Ẅ"/><glyph d="M856 1231q-6 -37 -38 -64.5t-70.5 -27.5t-60 27.5t-15.5 64.5q6 39 37.5 66.5t70.5 27.5t61.5 -27.5t14.5 -66.5zM1141 1231q-6 -37 -38 -64.5t-71 -27.5t-61.5 27.5t-14.5 64.5q6 39 38 66.5t71 27.5t60.5 -27.5t15.5 -66.5zM805 989h123l137 -667l385 702h217 l-577 -1024h-142l-137 676l-375 -676h-141l-219 1024h219l137 -702z" glyph-name="wdieresis" horiz-adv-x="1738" unicode="ẅ"/><glyph d="M879 1628l-373 217l115 158l366 -217zM1341 1516l-614 -811l-125 -705h-203l123 705l-329 811h247l226 -564l426 564h249z" glyph-name="Ygrave" horiz-adv-x="1351" unicode="Ỳ"/><glyph d="M674 1143l-373 219l117 156l366 -218zM1067 1024l-623 -1061q-186 -311 -503 -389l-35 184q250 68 389 326l-219 940h221l156 -668l389 668h225z" glyph-name="ygrave" horiz-adv-x="1173" unicode="ỳ"/><glyph d="M1249 506h-1235l37 213h1235z" glyph-name="endash" horiz-adv-x="1445" unicode="–"/><glyph d="M199 1133l-27 383h174l31 -383h-178z" glyph-name="quoteleft" horiz-adv-x="432" unicode="‘"/><glyph d="M272 1133h-178l164 383h174z" glyph-name="quoteright" horiz-adv-x="432" unicode="’"/><glyph d="M199 1133l-27 383h174l31 -383h-178zM469 1133l-27 383h176l29 -383h-178z" glyph-name="quotedblleft" horiz-adv-x="704" unicode="“"/><glyph d="M272 1133h-178l164 383h174zM545 1133h-180l163 383h177z" glyph-name="quotedblright" horiz-adv-x="704" unicode="”"/><glyph d="M35 -152h-178l166 381h174zM307 -152h-178l164 381h176z" glyph-name="quotedblbase" horiz-adv-x="694" unicode="„"/><glyph d="M1096 975l-35 -193h-426l-207 -1177h-190l206 1177h-421l34 193h422l94 541h191l-92 -541h424z" glyph-name="dagger" horiz-adv-x="1159" unicode="†"/><glyph d="M1034 623l-35 -193h-426l-145 -825h-190l145 825h-422l33 193h422l28 159h-421l34 193h422l94 541h191l-92 -541h424l-35 -193h-426l-27 -159h426z" glyph-name="daggerdbl" horiz-adv-x="1159" unicode="‡"/><glyph d="M514 506q-18 -106 -107.5 -183t-197.5 -77q-106 0 -170 75.5t-45 184.5q18 106 107 183t198 77t172 -75.5t43 -184.5z" glyph-name="bullet" horiz-adv-x="692" unicode="•"/><glyph d="M391 844q-139 0 -221 98t-57.5 237.5t141.5 239t256 99.5t222 -99.5t56 -238.5q-23 -139 -140.5 -237.5t-256.5 -98.5zM334 0h-203l1063 1516h201zM479.5 1337q-65.5 0 -121 -46t-67.5 -111q-10 -63 28.5 -110.5t102.5 -47.5q68 0 123 47t65 111q12 66 -26.5 111.5 t-104 45.5zM1016 -2q-139 0 -220 98.5t-56.5 237.5t140 237.5t255 98.5t222.5 -98.5t60 -237.5q-27 -139 -144.5 -237.5t-256.5 -98.5zM1774 -2q-139 0 -220 98.5t-56.5 237.5t141 237.5t256 98.5t220 -98.5t58.5 -237.5q-27 -139 -142.5 -237.5t-256.5 -98.5zM1102 492 q-66 0 -120 -45.5t-64 -112.5q-12 -66 26.5 -112t104 -46t121 46t67.5 112q10 68 -28.5 113t-106.5 45zM1862 492q-68 0 -121 -45.5t-64 -112.5q-12 -66 26 -112t103.5 -46t119.5 46t67 112q10 68 -27.5 113t-103.5 45z" glyph-name="perthousand" horiz-adv-x="2347" unicode="‰"/><glyph d="M506 219l-160 -131l-350 428l500 424l114 -125l-352 -299z" glyph-name="guilsinglleft" horiz-adv-x="722" unicode="‹"/><glyph d="M-66 219l351 297l-246 299l158 125l350 -424l-500 -428z" glyph-name="guilsinglright" horiz-adv-x="722" unicode="›"/><glyph d="M92 0h-207l1196 1516h209z" glyph-name="fraction" horiz-adv-x="1259" unicode="⁄"/><glyph d="M338 614q-119 0 -191.5 86t-52.5 207l60 328q20 119 121.5 206t222.5 87q123 0 194.5 -86t50.5 -207l-59 -328q-20 -121 -121.5 -207t-224.5 -86zM307 1235l-59 -328q-10 -57 24.5 -99t92 -42t106.5 42t59 99l60 328q10 57 -25 99t-92 42q-59 0 -107.5 -42t-58.5 -99z " glyph-name="uni2070" horiz-adv-x="821" unicode="⁰"/><glyph d="M700 918l-24 -146h-101l-28 -170h-156l31 170h-391l26 146l529 598h121l-105 -598h98zM225 918h221l56 311z" glyph-name="uni2074" horiz-adv-x="794" unicode="⁴"/><glyph d="M401 1231q131 0 204 -91t50 -222q-20 -129 -128.5 -222.5t-235.5 -93.5q-154 0 -236 135l140 103q35 -76 124 -76q66 0 120.5 45t64.5 110.5t-28 111.5t-103 46q-57 0 -105 -35l-106 93l127 381h405l-26 -156h-277l-43 -137q33 8 53 8z" glyph-name="uni2075" horiz-adv-x="749" unicode="⁵"/><glyph d="M463 1231q127 0 201.5 -92t52.5 -221q-23 -131 -131.5 -222.5t-239.5 -91.5q-129 0 -204.5 92t-55.5 224q16 84 66 145l350 453l119 -78l-164 -209h6zM561 918q12 66 -25.5 113.5t-105.5 47.5q-66 0 -121 -48t-67 -111q-10 -66 28.5 -114t102.5 -48q68 0 123 47t65 113z " glyph-name="uni2076" horiz-adv-x="831" unicode="⁶"/><glyph d="M633 1358l-395 -756h-168l397 756h-352l26 158h518z" glyph-name="uni2077" horiz-adv-x="659" unicode="⁷"/><glyph d="M586 1124q96 -82 69 -223q-20 -119 -118.5 -203t-217 -84t-187.5 84t-48 203q27 141 149 223q-53 66 -36 162q18 100 101 171t181 71q100 0 159.5 -71t41.5 -171q-14 -92 -94 -162zM455 1380q-39 0 -72 -27.5t-39 -66.5q-8 -39 14.5 -66.5t63.5 -27.5t72.5 27.5 t37.5 66.5q8 39 -15 66.5t-62 27.5zM346 762q57 0 105.5 41t58.5 98t-23.5 99t-91 42t-105.5 -40.5t-59 -100.5q-10 -57 23 -98t92 -41z" glyph-name="uni2078" horiz-adv-x="784" unicode="⁸"/><glyph d="M489 1528q129 0 206 -93.5t55 -222.5q-16 -84 -66 -145l-350 -453l-119 78l162 207h-4q-127 0 -202 93t-52.5 222t131 221.5t239.5 92.5zM594 1212q10 66 -28 113t-103 47q-68 2 -123 -46t-66 -114q-12 -66 27 -112.5t104.5 -46.5t121 46.5t67.5 112.5z" glyph-name="uni2079" horiz-adv-x="821" unicode="⁹"/><glyph d="M1030 1321q-156 0 -301 -82t-244 -213h531l-31 -184h-598q-16 -47 -22 -86q-4 -25 -9 -82h598l-32 -185h-533q51 -131 167 -212.5t271 -81.5q135 0 277 57l29 -199q-176 -66 -338 -65q-246 0 -418 139t-215 362h-170l31 185h127q2 27 10 84q4 33 20 84h-127l33 184h170 q123 221 345 361.5t466 140.5q170 0 301 -70l-96 -188q-127 51 -242 51z" glyph-name="Euro" horiz-adv-x="1378" unicode="€"/><glyph d="M618 1516l-24 -132h-172l-113 -636h-131l113 636h-174l24 132h477zM1468 1516l-135 -768h-131l82 458l-291 -432h-71l-138 432l-82 -458h-131l136 768h108l176 -555l371 555h106z" glyph-name="trademark" horiz-adv-x="1458" unicode="™"/><glyph d="M979 483q-37 -209 -206 -352t-376 -143q-205 0 -324.5 145.5t-82.5 347.5q35 205 206 351.5t377 146.5q160 0 271 -107l22 134q23 125 -51 215t-199 90h-223l35 205h205q223 0 350 -145.5t88 -364.5zM434 193q119 0 218.5 83.5t121.5 204.5q20 121 -49.5 206t-190 85 t-220 -85t-119.5 -206q-23 -121 47.5 -204.5t191.5 -83.5z" glyph-name="partialdiff" horiz-adv-x="1179" unicode="∂"/><glyph d="M1001 193l-32 -193h-1053l33 193l690 1323h139zM150 193h651l-160 933z" glyph-name="uni2206" horiz-adv-x="1234" unicode="∆"/><glyph d="M1671 1516l-37 -207h-264l-301 -1704h-207l301 1704h-557l-301 -1704h-207l301 1704h-264l37 207h1499z" glyph-name="product" horiz-adv-x="1658" unicode="∏"/><glyph d="M848 -287h-1004l37 205l604 715l-360 678l37 205h1003l-37 -205h-751l360 -678l-612 -715h758z" glyph-name="summation" horiz-adv-x="1142" unicode="∑"/><glyph d="M1466 1516l-880 -1516h-133l-166 831h-256l35 193h389l133 -664l672 1156h206z" glyph-name="radical" horiz-adv-x="1443" unicode="√"/><glyph d="M1419 965q164 0 260.5 -128t63.5 -307q-31 -180 -172 -307t-307 -127q-225 0 -420 281q-281 -281 -518 -281q-166 0 -262.5 128t-65.5 306q33 178 174 306.5t303 128.5q129 0 237.5 -82t184.5 -199q293 281 522 281zM358 289q158 0 394 241q-57 94 -138.5 168t-169.5 74 q-86 0 -161.5 -70.5t-92.5 -171.5q-18 -100 32 -170.5t136 -70.5zM1298 289q86 0 160 70.5t92 170.5q16 100 -33 171t-133 71q-88 0 -195.5 -74.5t-193.5 -167.5q53 -92 134 -166.5t169 -74.5z" glyph-name="infinity" horiz-adv-x="1904" unicode="∞"/><glyph d="M-80 -397h-96l35 192h96q66 0 119 45t65 111l207 1179q29 166 161 276t290 110h98l-35 -193h-96q-80 0 -145.5 -56.5t-81.5 -136.5l-207 -1179q-27 -152 -147 -250t-263 -98z" glyph-name="integral" horiz-adv-x="872" unicode="∫"/><glyph d="M1036 688q-262 -139 -538 -72q-6 2 -37 9.5t-46.5 11.5t-51 10t-60 8t-62.5 2t-69 -4t-67.5 -13t-69.5 -24l28 175q98 35 191.5 41t151 -5.5t163.5 -40.5q236 -63 496 76zM977 356q-262 -139 -539 -71q-2 0 -35.5 9t-47 11t-50.5 9.5t-60.5 9.5t-62.5 3t-68.5 -4.5 t-67.5 -14.5t-71 -23l31 172q96 35 189.5 41t150.5 -5.5t166 -39.5q236 -63 496 75z" glyph-name="approxequal" horiz-adv-x="1189" unicode="≈"/><glyph d="M1044 649h-374l-103 -153h451l-33 -187h-541l-239 -358l-144 78l189 280h-270l32 187h363l102 153h-436l33 187h530l240 358l139 -76l-188 -282h282z" glyph-name="notequal" horiz-adv-x="1206" unicode="≠"/><glyph d="M846 287l-795 356l21 121l921 356l-37 -196l-555 -219l478 -224zM-74 0l31 182h868l-30 -182h-869z" glyph-name="lessequal" horiz-adv-x="1069" unicode="≤"/><glyph d="M-35 287l35 194l555 224l-477 219l35 196l792 -356l-20 -121zM784 0h-868l31 182h868z" glyph-name="greaterequal" horiz-adv-x="1069" unicode="≥"/><glyph d="M453 0h-105l-319 756l585 760h105l317 -760zM254 756l195 -471l364 471l-197 475z" glyph-name="lozenge" horiz-adv-x="1146" unicode="◊"/><glyph d="M-74 0l189 1075q31 164 150.5 261.5t277.5 97.5h164l-35 -193h-162q-68 0 -123 -47t-68 -113l-10 -57h443l8 51q31 164 150.5 261.5t277.5 97.5h164l-35 -193h-162q-68 0 -123 -47t-65 -113l-13 -57h326l-31 -176h-325l-150 -848h-203l150 848h-442l-150 -848h-203z" glyph-name="f_f.dlig" horiz-adv-x="1351"/><glyph d="M-74 0l189 1075q31 164 150.5 261.5t277.5 97.5h164l-35 -193h-162q-68 0 -123 -47t-68 -113l-10 -57h443l8 51q31 164 150.5 261.5t277.5 97.5h164l-35 -193h-162q-68 0 -123 -47t-65 -113l-13 -57h713l-180 -1024h-205l150 848h-508l-150 -848h-203l150 848h-442 l-150 -848h-203zM1475 1237q10 49 54 87t93 38q55 0 85 -37t22 -88q-10 -55 -51.5 -90t-98.5 -35q-51 0 -81.5 36t-22.5 89z" glyph-name="f_f_i.dlig" horiz-adv-x="1785"/><glyph d="M-74 0l189 1075q31 164 150.5 261.5t277.5 97.5h164l-35 -193h-162q-68 0 -123 -47t-68 -113l-10 -57h705l-180 -1024h-205l149 850h-499l-150 -850h-203zM926 1112q-51 0 -82 36t-21 89q8 49 53.5 87t92.5 38q57 0 85.5 -37t20.5 -88q-10 -55 -51 -90t-98 -35z" glyph-name="f_i.dlig" horiz-adv-x="1132"/><glyph d="M-2 367l172 983h207l-58 -326h472l57 326h205l-58 -326h336l-31 -180h-335l-84 -479q-12 -66 25.5 -112t103.5 -46h174l-37 -207h-176q-164 0 -246 99.5t-51 267.5l84 477h-471l-84 -479q-10 -66 26.5 -112t102.5 -46h174l-35 -207h-178q-164 0 -245 99.5t-50 267.5z" glyph-name="t_t.dlig" horiz-adv-x="1392"/></font>
</defs>
</svg>
